<?xml version="1.0" standalone="no"?>
<!DOCTYPE svg PUBLIC "-//W3C//DTD SVG 1.1//EN" "http://www.w3.org/Graphics/SVG/1.1/DTD/svg11.dtd">
<svg xmlns="http://www.w3.org/2000/svg">
<metadata>Generated by Fontastic.me</metadata>
<defs>
<font id="line-icons" horiz-adv-x="512">
<font-face font-family="line-icons" units-per-em="512" ascent="480" descent="-32"/>
<missing-glyph horiz-adv-x="512" />

<glyph unicode="&#97;" d="M508 82l-232 374c-4 7-12 11-20 11c-8 0-16-4-20-11l-232-375c-5-7-5-16-1-24c4-7 12-12 20-12l466 0c13 0 23 11 23 24c0 5-2 9-4 13z m-19-20l-466 0c-2 0-4 1-5 3c-1 2-1 5 0 7l233 375c1 2 3 3 5 3c2 0 4-1 5-3l233-375c0 0 1-2 1-3c0-4-3-7-6-7z m-234 101c-8 0-16-3-22-9c-6-6-9-13-9-22c0-10 3-18 10-23c6-5 13-8 21-8c9 0 16 3 22 8c6 6 10 14 10 23c0 9-4 16-10 22c-6 6-13 9-22 9z m11-41c-6-5-15-5-21 0c-2 1-4 4-4 10c0 4 1 7 4 10c3 3 6 4 10 4c4 0 7-1 10-4c3-3 4-6 4-10c0-6-2-9-3-10z m-10 223c-9 0-17-3-23-9c-6-6-9-15-9-25c0-7 1-17 1-31l5-72c1-11 3-19 6-24c3-8 10-12 19-12c8 0 15 4 19 12c2 6 4 13 5 23l6 74c1 7 2 14 2 21c0 13-2 23-6 30c-3 6-10 13-25 13z m12-62l-6-74c-1-10-2-15-4-18c-1-1-1-2-3-2c-3 0-3 1-4 2c-1 3-3 8-4 18l-4 72c-1 14-2 24-2 30c0 6 2 10 4 13c3 3 7 4 11 4c8 0 9-2 10-4c2-3 3-9 3-22c0-6 0-12-1-19z"/>
<glyph unicode="&#98;" d="M212 223c2-22 5-37 10-48c6-13 17-20 32-20c15 0 26 7 33 20c5 11 9 27 11 47l14 161c1 15 2 30 2 45c0 26-3 45-10 60c-6 11-18 24-46 24c-18 0-32-6-43-18c-11-12-17-28-17-48c0-14 1-36 3-66z m15 259c8 9 18 13 31 13c16 0 25-5 30-15c6-11 9-29 9-52c0-14-1-28-2-43l-14-161c-2-18-5-32-9-41c-4-8-9-11-18-11c-8 0-13 3-16 10c-5 9-8 23-9 42l-11 157c-2 30-3 52-3 65c0 16 4 28 12 36z m29-367c-16 0-30-6-41-17c-11-11-17-25-17-40c0-18 6-33 18-43c11-10 25-15 40-15c16 0 29 5 40 15c12 11 18 25 18 43c0 15-6 29-17 40c-12 11-25 17-41 17z m29-87c-8-7-18-11-29-11c-11 0-21 4-29 11c-8 7-12 17-12 30c0 11 4 20 12 28c8 8 17 12 29 12c11 0 21-4 29-12c8-8 12-17 12-28c0-13-4-23-12-30z"/>
<glyph unicode="&#99;" d="M501 370l-137 132c-7 6-16 10-25 10l-166 0c-9 0-18-4-25-10l-137-132c-7-7-11-16-11-26l0-176c0-10 4-19 11-26l137-132c7-6 16-10 25-10l166 0c9 0 18 4 25 10l137 132c7 7 11 16 11 26l0 176c0 10-4 19-11 26z m-6-202c0-5-2-10-6-14l-137-132c-4-3-8-5-13-5l-166 0c-5 0-9 2-13 5l-137 132c-4 4-6 9-6 14l0 176c0 5 2 10 6 14l137 132c4 3 8 5 13 5l166 0c5 0 9-2 13-5l137-132c4-4 6-9 6-14z m-91 229c-12 11-32 11-43 0l-100-100l-101 100c-11 11-31 11-43 0c-12-12-12-31 0-43l101-100l-101-101c-12-12-12-31 0-43c12-11 32-11 43 0l101 101l100-101c6-6 13-9 21-9c9 0 16 3 22 9c12 12 12 31 0 43l-100 101l100 100c12 12 12 31 0 43z m-12-31l-107-106c-1-2-2-4-2-6c0-3 1-5 2-7l107-106c5-5 5-14 0-19c-5-5-14-5-19 0l-106 107c-2 1-4 2-6 2c-3 0-5-1-6-2l-107-107c-5-5-14-5-19 0c-5 5-5 14 0 19l107 107c3 3 3 8 0 12l-107 106c-5 5-5 14 0 19c5 5 14 5 19 0l107-107c3-3 8-3 12 0l106 107c5 5 14 5 19 0c5-5 5-14 0-19z"/>
<glyph unicode="&#100;" d="M385 383c0 71-58 129-129 129c-71 0-129-58-129-129c0-63 44-115 103-127l0-211l-17 2c-6 1-11-2-13-7c-3-5-2-11 2-15l21-21c3-3 6-4 10-4l46 0c4 0 9 3 11 7l18 32c3 5 2 12-2 16c-4 4-11 5-16 2l-8-5l0 204c59 12 103 64 103 127z m-99-349l-10-17l-42 0l-12 12l19-2c3 0 7 2 8 5l9 20l8-19c1-2 3-4 5-5c3-1 5 0 7 1z m-39 34l0 186c3-1 6-1 9-1c3 0 6 0 9 1l0-182c-2 2-4 3-7 3c-4 0-9-3-11-7z m29 204c-1 0-1 0-2 0c-2 0-3 0-4-1c-5 0-9-1-14-1c-6 0-11 1-16 2c-1 0-1 0-2 0c0 0 0 0 0 0c-53 8-94 55-94 111c0 62 50 112 112 112c62 0 112-50 112-112c0-56-40-101-92-111z m-20 202c-51 0-92-41-92-91c0-51 41-92 92-92c51 0 92 41 92 92c0 50-41 91-92 91z m0-166c-41 0-75 33-75 75c0 41 34 74 75 74c41 0 75-33 75-74c0-42-34-75-75-75z"/>
<glyph unicode="&#101;" d="M502 353c-1 4-3 8-5 13c-43 89-133 146-232 146c-5 0-8-4-8-9l0-197c0-5 3-9 8-9c16 0 31-11 37-26c1-2 2-4 4-5c1 0 3 0 4 0c1 0 2 0 3 0l185 75c2 1 3 3 4 5c1 2 1 4 0 7z m-188-68c-9 15-23 25-40 28l0 182c88-3 169-56 207-137c1-1 2-3 2-4z m-244 124c-1 1-4 2-6 2c-2-1-4-2-5-4c-62-84-67-196-12-285c1-2 3-4 5-4c1 0 2 0 2 0c2 0 3 0 5 1l167 103c2 1 4 3 4 5c1 3 0 5-1 7c-4 7-7 14-7 22c0 9 3 18 9 25c1 2 2 4 1 6c0 2-1 4-3 6z m140-177l-153-94c-45 79-41 177 10 252l145-106c-4-9-7-18-7-28c0-8 2-16 5-24z m286-67l-183 80c-2 1-5 1-7 0c-2-1-4-3-5-5c-6-15-21-25-37-25c-5 0-8-4-8-8l-5-198c0-2 1-5 2-6c2-2 4-3 6-3c2 0 4 0 6 0c102 0 194 60 235 154c2 4 0 9-4 11z m-228-148l4 182c17 2 32 12 41 27l168-73c-39-82-122-135-213-136z"/>
<glyph unicode="&#102;" d="M318 392l0 10c0 21-17 37-37 37l-31 0c1 10 3 18 8 23c5 5 13 8 24 8l38 0c-1-2-2-4-2-7c1-3 3-5 6-6l19-6l6-20c1-3 4-5 7-5c1 0 1-1 1-1c3 0 6 2 7 4l12 16l20 0c3 0 6 2 8 5c1 3 1 6-1 9l-12 16l6 19c2 3 1 6-2 9c-2 2-5 3-8 2l-19-7l-16 12c-3 2-7 3-9 1c-3-1-5-4-5-8l0-16l-56 0c-16 0-28-4-36-13c-10-9-12-22-13-35l-10 0c-21 0-38-16-38-37l0-13c-78-29-130-104-130-188c0-111 90-201 201-201c111 0 201 90 201 201c0 87-57 164-139 191z m43 90c2-2 5-2 8-1l7 2l-3-7c0-3 0-5 2-8l4-6l-7 1c-3 0-6-2-7-4l-4-6l-3 7c0 3-3 5-5 6l-7 2l6 4c2 2 3 4 3 7l0 7z m-159-80c0 11 10 20 21 20l58 0c11 0 20-9 20-20l0-17c0 0 0 0 0 0l0-14c-5-3-23-6-49-6c-27 0-44 3-50 6z m54-385c-101 0-184 83-184 184c0 75 45 142 113 170l0-3c0-5 0-20 67-20c66 0 66 15 66 20l0 6c72-26 122-95 122-173c0-101-83-184-184-184z m-87 309c-14-5-29-15-39-29c-11-14-16-30-12-41c2-4 5-6 9-6c0 0 1 0 2 0c5 2 7 7 6 11c-2 6 1 16 8 26c9 10 20 19 31 23c4 1 7 6 5 11c-1 4-6 6-10 5z"/>
<glyph unicode="&#103;" d="M414 246l-116 0c-1 6-3 11-6 16l83 83c3 4 3 9 0 12c-3 4-9 4-12 0l-83-83c-7 5-15 7-24 7c-24 0-43-19-43-43c0-24 19-43 43-43c20 0 38 14 42 34l116 0c4 0 8 4 8 8c0 5-4 9-8 9z m-158-34c-15 0-26 12-26 26c0 14 11 26 26 26c4 0 8-1 11-3l-16-16c-4-1-6-4-6-8c0-4 4-8 8-8l27 0c-4-10-13-17-24-17z m20 34l3 3c1-1 1-2 2-3z m202 59c34 37 39 93 10 135c-2 3-45 58-109 46c-20-3-39-13-54-26c-12 3-24 6-36 8l0 35c0 5-4 9-8 9l-49 0c-5 0-8-4-8-9l0-35c-13-2-25-5-37-8c-15 13-34 23-54 26c-64 12-107-43-109-46c-29-42-24-97 10-134c-7-22-10-44-10-68c0-60 23-115 61-157c-2 0-3-1-5-2l-28-28c-2-2-4-5-4-10c0-8 5-17 14-26c8-8 18-14 27-14c3 0 7 1 9 4l32 31c1 2 2 4 2 6c36-23 78-36 124-36c45 0 87 13 123 35c0-2 0-4 2-6l31-31c2-2 5-4 10-4c0 0 0 0 0 0c8 0 17 5 26 14c12 12 19 27 10 36l-27 27c-1 2-4 3-6 3c39 41 63 97 63 158c0 23-4 46-10 67z m-237 190l31 0l0-26c-5 1-11 1-16 1c-5 0-10 0-15 0z m-204-65c1 1 39 49 93 39c14-2 27-8 38-16c-58-24-104-70-128-129c-23 31-24 74-3 106z m81-382l-30-30c-3 1-8 3-14 9c-6 6-8 11-9 13l27 27c2 1 2 3 3 4c8-7 16-15 25-21c-1-1-1-1-2-2z m327-9c-1-2-3-7-9-13c-6-6-11-8-13-9l-30 30c-1 1-2 2-3 2c9 7 18 14 27 22c0-2 1-4 2-6z m-189-16c-119 0-215 97-215 215c0 22 3 44 9 64c2 2 3 4 2 6c30 84 110 145 204 145c95 0 175-62 204-148c0 0 0-1 0-1c7-21 11-43 11-66c0-118-97-215-215-215z m88 430c11 8 24 14 38 16c54 10 92-38 92-38c22-33 21-76-3-107c-23 58-69 105-127 129z"/>
<glyph unicode="&#104;" d="M256 0c-92 0-167 67-167 150c0 50 23 88 47 127c14 23 28 47 39 74c23 59 19 151 18 152c0 3 2 6 4 7c3 2 6 2 8 1c3-1 67-28 112-103c26-43 22-98 14-136c10 18 14 36 15 58c0 4 2 7 6 8c4 1 8 0 10-4c41-65 61-127 61-184c0-83-75-150-167-150z m-45 489c0-29-1-96-20-145c-11-28-26-52-40-75c-23-38-45-74-45-119c0-73 67-133 150-133c83 0 150 60 150 133c0 47-15 99-46 153c-5-29-19-53-42-76c-3-3-8-4-11-1c-3 2-5 6-3 10c0 1 37 99-2 163c-31 51-71 79-91 90z m43-452c0 0 0 0 0 0c-35 0-64 28-64 63c0 20 9 36 18 51c4 9 9 17 13 27c7 22 6 57 6 57c0 3 2 6 4 8c3 2 7 1 10-1c3-2 83-64 77-143c-3-35-30-62-64-62z m-10 180c-1-13-2-30-7-44c-4-12-9-21-15-30c-8-15-15-27-15-43c0-26 21-46 47-46c25 0 45 19 47 46c4 51-36 96-57 117z"/>
<glyph unicode="&#105;" d="M310 190c-8 0-15-7-15-16c0-9 7-16 15-16c9 0 16 7 16 16c0 9-7 16-16 16z m-1-16c0 1 0 1 1 1c1 0 2 0 2-1c0-1-3-1-3 0z m-102 16c-8 0-15-7-15-16c0-9 7-16 15-16c9 0 16 7 16 16c0 9-7 16-16 16z m-1-16c0 1 0 1 1 1c1 0 2 0 2-1c0-1-3-1-3 0z m46 310c-59 0-108-48-108-107c0-60 49-108 108-108c59 0 108 48 108 108c0 59-49 107-108 107z m0-194c-48 0-87 39-87 87c0 47 39 86 87 86c48 0 87-39 87-86c0-48-39-87-87-87z m32 110c0 0 0 0 0 0c-1 6-2 12-5 17c-13 21-31 29-32 29c-4 2-7 1-10-1c-3-2-5-5-5-9c0-6 0-23-4-34c-2-6-5-12-9-17c-6-11-13-22-13-36c0-26 23-46 50-46c28 0 50 20 50 46c0 18-3 32-13 46c-2 4-5 5-9 5z m-28-76c-16 0-29 11-29 25c0 9 5 16 10 25c4 6 8 12 11 20c2 7 4 15 5 23c2-3 5-6 7-11c7-10 2-27 0-33c-2-5 0-10 4-13c4-2 10-2 13 2c2 1 3 2 4 3c1 1 1 2 2 2c2-5 2-11 2-18c0-14-13-25-29-25z m189-10c0 46-8 106-49 148c-32 33-79 50-140 50c-61 0-108-17-140-50c-41-42-49-102-49-148c-26-4-57-13-57-37c0-23 25-31 62-34c-5-17-7-34-7-52c0-105 86-191 191-191c105 0 191 86 191 191c0 0 0 0 0 1c0 0 0 0 0 0c0 17-2 34-7 51c10 1 19 2 26 3c9 2 36 8 36 31c0 24-31 33-57 37z m-320-73c18 0 37 1 58 1c15 0 30 0 45 1c-5-3-9-6-15-8c-52-23-109-32-131-34c1 14 4 28 8 41c11-1 23-1 35-1z m131-224c-93 0-170 74-174 166c22 3 82 11 138 37c15 6 29 14 42 23c24 0 46-1 67-1c15 0 28 0 41-1l60-53c-2-95-79-171-174-171z m173 195l-33 29c10 0 19 1 26 1c4-10 6-20 7-30z m34 51c-16-3-40-5-76-5c-18 0-37 1-57 1c-24 0-48 1-74 1c-26 0-50-1-74-1c-20 0-39-1-57-1c-9 0-23 0-38 1c0 0-1 0-1 0c-1 1-3 1-4 0c-28 2-55 6-55 18c0 9 18 17 50 22c5 0 8 4 8 8c-2 43 4 103 43 143c29 30 72 45 128 45c56 0 99-15 128-45c39-40 45-100 44-143c-1-4 3-8 7-8c32-5 50-13 50-22c0-6-7-11-22-14z"/>
<glyph unicode="&#106;" d="M500 248c-6 48-19 81-39 99c-15 14-54 14-89 14l-4 0c-25-1-63-2-63-25l0-86l-238 0l0 41l405 103c5 2 7 6 6 11c-1 4-6 7-10 6l-452-116c-4-1-7-5-6-10c1-4 5-6 8-6c1 0 2 0 2 0l30 7l0-36c-32 0-50-14-50-39l0-20c0-15 0-50 35-50l40 0c6-23 26-40 50-40c25 0 45 17 50 40l200 0c5-23 25-40 50-40c24 0 44 17 50 40l4 0c18 0 33 14 33 33l0 49c0 9-4 19-12 25z m-375-130c-19 0-34 15-34 34c0 19 15 35 34 35c19 0 35-16 35-35c0-19-16-34-35-34z m300 0c-19 0-35 15-35 34c0 19 16 35 35 35c19 0 34-16 34-35c0-19-15-34-34-34z m70 56c0-9-7-16-16-16l-3 0c-3 26-25 46-51 46c-27 0-49-20-51-46l-198 0c-2 26-24 46-51 46c-26 0-48-20-51-46l-39 0c-12 0-18 5-18 33l0 20c0 6 0 22 33 22l264 0c5 0 8 4 8 8l1 95c0 2 6 7 45 7l4 1c18 0 66 1 78-10c16-15 28-47 34-92c0-3 2-5 4-6c4-3 7-8 7-13l0-49z m-40 88l-57 0l0 47c0 5-4 9-9 9c-4 0-8-4-8-9l0-49c0-8 7-15 15-15l59 0c5 0 9 3 9 8c0 5-4 9-9 9z"/>
<glyph unicode="&#107;" d="M309 197c-9 0-16-7-16-16c0-9 7-16 16-16c8 0 15 7 15 16c0 9-7 16-15 16z m-2-16c0 1 1 1 2 1c1 0 1 0 1-1c0-2-3-2-3 0z m-100 16c-9 0-15-7-15-16c0-9 6-16 15-16c8 0 15 7 15 16c0 9-7 16-15 16z m-2-16c0 1 1 1 2 1c1 0 2 0 2-1c0-2-4-2-4 0z m305 145l-89 107c-1 1-2 2-3 2l-159 66c-2 0-4 0-6-1l-161-66c-2-1-3-2-4-3l-86-105c-3-3-3-7 0-11l71-82c-2-12-4-24-4-35c0-103 84-187 187-187c103 0 187 84 187 187c0 12-1 24-3 35l70 82c3 4 3 8 0 11z m-87-99c1-3 1-6 2-9l-10 9z m-325 17c22 20 86 34 163 34c76 0 138-14 156-34z m-9-17l89 0c-39-13-74-18-91-20c0 7 1 13 2 20z m167-199c-91 0-165 72-169 162c21 2 80 10 135 35c0 1 1 1 2 2l165 0l37-33c-2-92-77-166-170-166z m177 223c-23 32-104 44-172 44c-70 0-155-12-181-45l-60 71l80 98l156 64l153-63l83-99z m-122 178c-5 9-17 13-28 9c-2 0-4-1-6-1c-8 0-17 5-19 7c-1 0-2 1-3 1c-2 1-4 1-6 0c-1 0-1-1-2-1c-3-2-11-7-19-7c-3 0-5 1-6 1c-12 4-23 0-28-9c-4-8-4-18 1-25c5-8 7-12 7-13c0-1-1-1-1-2c-6-8-18-24-2-49c8-13 15-13 31-15c2 0 4 0 7 0l10-9c1-2 3-2 5-2c2 0 4 0 6 2l10 9c2 0 5 0 7 0c15 2 23 2 31 15c15 25 3 41-2 49c-1 1-1 1-2 2c1 2 3 6 7 13c5 7 6 17 2 25z m-21-50c5-7 11-15 1-31c-3-4-3-4-18-6c-3 0-6 0-9-1c-2 0-4 0-5-2l-7-5l-6 5c-1 2-3 2-5 2c-4 1-7 1-10 1c-14 2-14 2-17 6c-10 16-4 24 1 31c2 3 5 7 5 11c0 5-4 13-11 23c-1 2-1 5 0 8c1 2 3 2 4 2c1 0 2 0 3-1c4-1 7-2 12-2c10 0 19 4 24 7c6-3 15-7 25-7c4 0 8 1 12 2c1 1 2 1 3 1c1 0 3 0 4-2c1-3 1-6-1-8c-7-10-10-18-10-23c0-5 2-8 5-11z"/>
<glyph unicode="&#108;" d="M390 288c-46 56-97 83-160 84c-47 1-112-12-157-79c-5-3-23-12-41-15c-20-3-31-18-32-42c-1-29 19-42 80-53c3-7 7-14 12-20c11-11 25-17 40-17l1 0l0 0c23 0 43 14 52 33l179-3c2-7 6-13 11-18c11-11 25-18 40-18l1 0c23 0 43 14 52 34l25-1c0 0 0 0 0 0c13 0 18 15 19 27c1 76-88 87-122 88z m-257-125l0 0c-11 0-21 4-28 12c-8 8-12 18-11 29c0 21 18 39 40 39c0 0 0 0 0 0c22-1 40-19 39-41c0-4-1-7-2-10c0 0 0-1 0-1c-5-16-20-28-38-28z m283-6l0 0c-11 0-21 5-28 12c-8 8-12 18-11 29c0 21 18 39 40 39c0 0 0 0 0 0c22-1 40-19 39-41c0-21-18-39-40-39z m76 33l-19 1c0 1 0 3 0 5c1 31-24 57-55 58l-2 0c-30 0-56-25-56-56c0-2 0-3 0-5l-170 3c0 2 0 4 0 6c1 31-24 57-55 58l-2 0c-30 0-56-25-57-56c0-1 1-2 1-3c-56 11-60 22-60 34c0 16 6 25 17 26c23 4 44 15 49 17c1 1 3 2 4 3c39 63 99 75 143 74c59-1 105-26 150-80c1-2 4-3 6-3c33-1 110-10 109-71c0-4-2-9-3-11z m-188 118c-5 9-15 13-25 9c-1 0-3-1-5-1c-8 0-15 6-15 6c-1 0-1 0-2 1c-3 1-6 1-9-1c-2-2-13-7-20-5c-10 4-20 0-25-9c-4-7-3-15 1-22c4-5 5-8 6-10c0 0-1 0-1-1c-4-6-15-21-1-43c6-11 13-11 27-13c1 0 3 0 5 0l8-7c1-2 3-2 6-2c2 0 4 0 5 2l8 7c2 0 4 0 5 0c14 2 21 2 28 13c13 22 2 37-2 43c0 1-1 1-1 1c1 2 2 5 6 10c4 7 5 15 1 22z m-20-43c4-6 9-12 1-24c-2-4-2-4-14-5c-2 0-5 0-8 0c-2 0-4-1-5-2l-4-4l-5 4c-1 1-3 2-5 2c-3 0-6 0-8 0c-12 1-12 1-14 5c-8 12-3 18 1 24c2 3 4 6 4 10c0 5-3 12-9 21c-1 1 0 3 0 4c1 1 2 2 2 2c1 0 2-1 2-1c4-1 7-2 11-2c8 0 16 3 21 6c4-3 12-6 20-6c4 0 7 1 11 2c1 1 3 2 4-1c0-1 1-3 0-4c-6-9-9-16-9-21c0-4 2-7 4-10z"/>
<glyph unicode="&#109;" d="M362 135c4 23 9 64 9 78l0 99c0 0 0 1 0 1c0 0 0 1 0 1l0 73c0 16-13 29-29 29c-4 0-8-1-12-3l0 44c0 16-13 29-29 29c-5 0-9-1-13-3c0 16-13 29-29 29c-16 0-29-13-29-29l0-6c-4 2-8 3-13 3c-16 0-29-13-29-29l0-115c-5 6-14 17-26 19c-7 1-13-1-19-6c-6-6-5-16-2-31c1-7 3-15 3-23c1-8 1-15 1-23c0-16 1-29 5-37c8-18 37-59 42-66c2-3 4-9 6-16c2-6 4-12 6-18l-2 0c-7 0-14-6-14-13l0-113c0-5 4-9 9-9c5 0 9 4 9 9l0 109l150 0l0-109c0-5 4-9 9-9c5 0 8 4 8 9l0 113c0 6-4 12-11 13z m-148 23c-3 8-5 16-6 18c0 1-1 2-1 2c0 1-33 47-42 65c-2 5-3 17-3 30c0 7 0 15-1 23c-1 9-2 18-3 25c-1 6-3 13-2 16c1 1 2 1 3 1c7-1 15-12 17-15c5-10 9-23 12-39c1-4 5-7 9-7c5 1 8 4 8 9l0 44c0 0 0 1 0 1l0 120c0 6 6 12 12 12c7 0 12-6 12-12l0-125c0-4 4-8 8-8c3 0 5 0 7 2c2 2 3 4 3 6l0 157c0 7 5 12 12 12c7 0 12-5 12-12l0-161c0-5 4-9 8-9c3 0 5 1 7 2c2 2 3 4 3 6l0 136c0 7 5 12 12 12c6 0 12-5 12-12l0-139c0 0 0 0 0-1c-1-4 3-8 8-9c2 0 5 1 6 2c2 2 3 4 3 7l0 70c0 6 6 12 12 12c7 0 12-6 12-12l0-73l0-1c0-1 0-2 0-3l0-98c0-13-5-56-9-77l-123 0c-2 6-5 15-8 23z"/>
<glyph unicode="&#110;" d="M409 391c-23 21-49 36-78 47l0 65c0 4-1 6-4 8c-3 1-6 1-8 0c-36-20-114-73-117-75c-3-2-4-5-4-7c0-3 2-6 4-8c3-2 81-52 117-71c1-1 2-1 4-1c1 0 3 0 4 1c3 2 4 5 4 8l0 61c25-9 47-23 66-41c85-78 90-210 12-294c-38-41-89-65-145-67c-55-2-109 18-149 55c-41 38-65 90-67 145c-2 56 17 109 55 150c3 3 3 9 0 12c-4 3-9 3-12-1c-41-44-62-101-60-161c2-61 28-116 72-157c42-39 96-60 153-60c3 0 6 0 9 0c60 3 115 28 156 72c85 91 79 234-12 319z m-95-19c-29 17-72 44-92 57c20 13 63 42 92 60z"/>
<glyph unicode="&#111;" d="M421 378c-3 4-8 4-12 1c-3-3-3-9 0-12c38-41 57-94 55-150c-2-55-26-107-67-145c-40-37-93-57-149-55c-56 2-107 26-145 67c-78 84-73 216 12 294c19 18 41 32 66 41l0-61c0-3 1-6 4-8c1-1 3-1 4-1c2 0 3 0 4 1c36 19 114 69 117 72c2 1 4 4 4 7c0 2-1 5-4 7c-3 2-81 55-117 75c-2 1-5 1-8 0c-3-2-4-4-4-8l0-65c-29-11-55-26-78-47c-91-85-97-228-12-319c41-44 96-70 156-72c3 0 6 0 9 0c57 0 111 21 153 60c44 41 70 96 72 157c2 60-19 117-60 161z m-223 111c29-18 72-47 92-60c-20-13-63-40-92-57z"/>
<glyph unicode="&#112;" d="M510 371c-3 3-9 3-12 0l-242-213l-242 214c-3 3-9 3-12-1c-3-3-3-9 1-12l247-219c2-1 4-2 6-2c2 0 4 1 6 2l247 219c4 3 4 8 1 12z"/>
<glyph unicode="&#113;" d="M509 153l-247 219c-4 3-8 3-12 0l-247-219c-4-3-4-8-1-12c3-3 9-3 12 0l242 213l242-214c1-1 3-2 5-2c3 0 5 1 7 3c3 3 3 9-1 12z"/>
<glyph unicode="&#114;" d="M158 256l214 242c3 3 3 9-1 12c-3 3-9 3-12-1l-219-247c-3-4-3-8 0-12l219-247c1-2 4-3 6-3c2 0 4 1 6 2c3 3 3 9 0 12z"/>
<glyph unicode="&#115;" d="M372 262l-219 247c-3 4-9 4-12 1c-4-3-4-9-1-12l214-242l-213-242c-3-3-3-9 0-12c2-1 4-2 6-2c2 0 5 1 6 3l219 247c3 4 3 8 0 12z"/>
<glyph unicode="&#116;" d="M503 265l-476 0l135 152c3 3 3 9 0 12c-4 3-9 3-12-1l-148-166c0-1 0-1-1-2c0 0 0 0 0-1c-1-2-1-4 0-6c0-1 0-1 0-1c1-1 1-1 1-2l147-166c2-2 4-3 7-3c2 0 4 1 5 2c4 3 4 9 1 12l-135 152l476 0c5 0 9 4 9 9c0 5-4 9-9 9z"/>
<glyph unicode="&#117;" d="M511 259c0 1 0 1 0 1c-1 1-1 1-1 2l-148 166c-3 4-8 4-12 1c-3-3-3-9 0-12l135-152l-476 0c-5 0-9-4-9-9c0-5 4-9 9-9l476 0l-135-152c-3-3-3-9 1-12c1-1 3-2 5-2c3 0 5 1 7 3l147 166c0 1 0 1 1 2c0 0 0 0 0 1c1 2 1 4 0 6z"/>
<glyph unicode="&#118;" d="M471 58c0 0 0 1 0 1c1 1 1 1 1 2c0 1 0 1 0 1c0 7 0 71-13 94c-9 15-21 27-30 35c-2 2-5 5-6 6c-5 21-9 43-12 65c-12 71-24 150-102 175c2 5 3 11 3 17c0 32-26 58-58 58c-32 0-57-26-57-58c0-6 1-12 2-17c-76-25-88-103-99-173c-3-22-7-44-12-64c-1-1-3-3-4-4c-8-8-24-21-33-41c-11-24-13-76-10-92c0 0 0-1 0-2c1-1 1-1 1-2c0 0 0 0 0 0c0 0 0 0 0 0c1-1 1-1 2-2c0 0 0 0 1 0c3-2 86-57 209-57c123 0 210 53 214 55c0 0 0 0 0 0c0 0 1 0 1 0c0 1 0 1 0 1c1 1 1 1 2 2z m-184 26c2-4 3-9 3-13c0-20-17-37-37-37c-21 0-38 17-38 37c0 4 1 8 3 12c13 2 25 2 36 2c10 0 22 0 33-1z m-41-67c-80 2-143 28-173 43c29 6 79 16 127 22c-1-4-2-7-2-11c0-28 21-50 48-54z m61 54c0 4-1 7-2 11c49-6 104-17 134-23c-32-15-98-41-181-42c27 3 49 26 49 54z m-93 383c0 23 18 41 40 41c23 0 41-18 41-41c0-4-1-9-2-13c-12 2-24 3-38 3c-15 0-27-1-39-3c-2 4-2 9-2 13z m-148-307c8 17 21 29 29 36c6 5 8 7 9 11c6 22 9 45 13 67c13 86 25 166 138 166c15 0 29-1 41-4c1 0 1-1 1-1c74-18 85-89 97-163c3-22 7-45 13-67c1-4 4-7 10-13c8-8 20-19 27-32c8-13 10-52 11-74c-33 7-136 29-201 29c-63 0-158-20-193-27c-2 0-3-1-4-1c0 17 1 55 9 73z"/>
<glyph unicode="&#119;" d="M449 332c0 99-87 180-193 180c-106 0-193-81-193-180c0-38 13-75 37-105c-11-29-12-51-5-63c4-6 10-11 18-12c18-6 49-17 60-24l0-20c0-6 2-12 37-19l7-1c9-2 22-4 35-4c0 0 2 0 3 0c2 0 3 0 4 0c12 0 27 2 42 5c0 0 6 2 7 2c26 6 30 11 30 17l0 21c15 8 45 19 57 23c8 1 14 5 18 12c7 12 6 32-3 59c25 31 39 70 39 109z m-51-159c-1-2-2-4-6-4c0 0-1 0-1 0c-2-1-49-17-66-28c-2-1-4-4-4-7l0-21c-2-2-8-4-17-6c0 0-7-1-7-1c-14-3-28-5-39-5c-1 0-4 0-6 0c-9 0-20 1-32 4l-7 1c-12 2-20 5-23 6l0 21c0 3-3 6-5 7c-15 11-62 27-68 29c0 0-1 0-1 0c-4 0-5 2-6 4c-5 8-2 27 7 52c1 3 1 6-1 9c-23 28-36 62-36 98c0 90 79 163 176 163c97 0 176-73 176-163c0-37-14-72-39-101c-2-3-2-6-1-9c8-23 11-42 6-49z m-43-79c-5 0-9-3-10-8c-2-20-9-35-21-47c-12-12-43-22-69-22c-26 0-59 12-69 22c-12 13-19 29-21 50c-1 5-5 8-10 8c-4-1-8-5-7-10c2-25 11-44 26-60c14-15 52-27 81-27c27 0 65 10 81 27c15 15 23 34 26 57c1 5-3 9-7 10z m-121 171c0 24-26 46-56 46c-30 0-55-31-55-46c0-24 21-39 55-39c35 0 56 15 56 39z m-56-22c-11 0-38 2-38 22c0 6 17 29 38 29c22 0 39-16 39-29c0-19-27-22-39-22z m157 68c-30 0-56-22-56-46c0-24 21-39 56-39c34 0 55 15 55 39c0 15-25 46-55 46z m0-68c-12 0-39 2-39 22c0 13 17 29 39 29c21 0 38-23 38-29c0-19-27-22-38-22z m-78 31c-3 0-5-2-7-3c-1-2-29-37-29-85c0-4 2-7 5-8c3-1 6-1 9 1c0 0 11 9 25 9c8 0 15-3 21-10c2-1 4-2 6-2c2 0 3 0 4 1c3 1 5 5 5 8c0 2-5 58-33 86c-2 2-4 3-6 3z m-18-73c3 22 12 40 19 50c10-15 15-34 18-49c-12 5-27 3-37-1z"/>
<glyph unicode="&#120;" d="M458 135c-9 0-19-2-27-6l-46 45c1 1 2 1 2 2c6 11 6 27-1 49c20 25 30 55 30 86c0 17-3 32-8 47l24 25c8-4 17-6 26-6c14 0 27 5 37 12c11 9 17 20 17 32c0 22-21 41-48 43c-2 27-21 48-43 48c-24 0-44-24-44-54c0-9 2-19 6-27l-14-14c-28 26-68 43-111 43c-45 0-85-18-113-45l-16 16c4 8 6 18 6 27c0 30-20 54-44 54c-22 0-41-21-43-48c-27-2-48-21-48-43c0-24 24-44 54-44c9 0 18 2 26 6l27-27c-5-14-7-29-7-45c0-30 9-59 27-83c-8-24-8-40-1-52c0 0 1-1 1-2l-46-45c-8 4-18 6-27 6c-30 0-54-20-54-44c0-22 21-41 48-43c2-27 21-48 43-48c0 0 0 0 0 0c12 0 23 6 32 17c7 10 12 23 12 37c0 9-2 18-6 26l56 56c1-12 13-17 35-22l6-1c10-2 20-3 29-3l0 0l5 0c10 0 22 2 34 4c1 0 6 1 6 1c14 4 27 8 29 18l54-53c-4-8-6-17-6-26c0-30 20-54 44-54c22 0 41 21 43 48c27 2 48 21 48 43c0 24-24 44-54 44z m-58 288c3 3 3 8 1 11c-4 7-7 15-7 24c0 21 12 37 27 37c14 0 26-16 26-37l0-2c0-2 2-5 3-6c2-2 5-3 7-3l1 0c21 0 37-12 37-26c0-7-4-13-10-18c-13-10-35-11-50-3c-3 3-8 2-10-1l-25-24c-5 10-11 20-19 29z m-313-24c-2 3-7 4-10 1c-7-4-15-6-23-6c-21 0-37 12-37 27c0 14 16 26 37 26l2 0c2 0 5 1 6 3c2 1 3 4 3 6l0 2c0 21 12 37 26 37c15 0 27-16 27-37c0-9-3-17-7-24c-2-3-2-8 1-11l21-21c-7-9-14-19-19-29z m26-312c-3-2-4-7-1-10c4-7 6-15 6-23c0-11-3-20-9-27c-5-6-11-10-18-10c0 0 0 0 0 0c-14 0-26 16-26 37l0 2c0 2-1 5-3 6c-2 2-5 3-7 3l-1 0c-21 0-37 12-37 26c0 15 16 27 37 27c9 0 17-3 24-7c3-2 8-2 11 1l52 52c1 0 2 0 3 0c6-3 21-8 33-13z m183 45c0 0-4-1-5-1c-11-2-22-4-31-4l-5 0c-7 0-17 1-26 3l-5 1c-15 3-20 5-22 6l0 15c0 3-1 6-4 7c-12 8-49 21-50 21c0 0-1 0-1 0c-1 1-2 1-3 1c0 1-1 1-2 1c0 1-1 2-2 3c-2 4-5 15 5 41c1 3 0 6-1 9c-18 22-27 49-27 76c0 73 63 132 141 132c41 0 78-17 104-44c0 0 1 0 1-1c0 0 1 0 1-1c22-23 35-53 35-86c0-29-10-56-29-79c-2-2-2-5-1-8c8-25 6-35 3-39c0-1-1-2-3-3c0 0 0 0 0 0c-1-1-2-2-4-2c-1 0-2 0-2 0c-15-6-35-13-46-19c-1 0-1-1-2-1c0-1 0-1 0-1c0 0 0 0 0 0c-1-1-1-1-1-2c-1-1-1-3-1-5l0-15c-2 0-5-2-17-5z m162-67l-2 0c-2 0-4-1-6-3c-2-1-3-4-3-6l0-2c0-21-12-37-26-37c-15 0-27 16-27 37c0 8 2 16 6 23c3 3 2 8-1 10l-63 64c8 4 19 8 32 12c0 0 0 0 0 0c1 1 2 1 3 1l52-52c3-3 8-3 11-1c7 4 15 7 24 7c21 0 37-12 37-27c0-14-16-26-37-26z m-144 37c-5 1-10-1-11-6c-1-1-11-28-46-28c-35 0-45 27-46 29c-1 4-6 6-10 5c-5-2-7-7-6-11c1-2 15-40 62-40c47 0 61 38 62 40c1 4-1 9-5 11z m-71 157c0 20-20 37-43 37c-24 0-44-23-44-37c0-19 17-31 44-31c27 0 43 12 43 31z m-43-14c-8 0-27 2-27 14c0 5 12 20 27 20c14 0 26-11 26-20c0-12-18-14-26-14z m160 14c0 14-20 37-43 37c-24 0-44-17-44-37c0-19 17-31 44-31c27 0 43 12 43 31z m-70 0c0 9 12 20 27 20c14 0 26-15 26-20c0-12-18-14-26-14c-8 0-27 2-27 14z m-58-53c-3-3-4-8-1-12c3-3 9-4 12-1c1 1 18 14 32 0c2-2 4-3 6-3c2 0 5 1 6 3c4 3 4 9 0 12c-20 20-44 10-55 1z"/>
<glyph unicode="&#121;" d="M473 251c-28 27-65 41-103 39c14 22 22 47 22 74c0 57-36 108-89 127c-4 1-9-1-11-5c-1-4 1-9 5-11c31-15 51-47 51-82c0-16-4-31-11-44c-24 15-51 23-79 23c-28 0-56-9-80-24c-7 13-12 28-12 45c0 35 21 67 52 82c4 2 6 7 4 11c-2 4-6 6-11 5c-53-19-88-70-88-127c0-27 7-52 22-74c-3 0-7 0-10 0c-36 0-70-14-96-39c-40-40-50-102-26-153c1-3 4-5 7-5c5 0 9 4 9 9c0 1 0 3-1 4c-11 33-2 69 22 93c17 17 39 27 63 27c1-56 33-107 83-130c-4-9-10-18-17-25c-17-18-40-27-65-27c-10 0-20 2-30 5c-4 1-9-1-11-5c-1-4 0-9 5-11c17-8 37-12 57-12c36 0 70 14 95 39c11 11 19 23 26 37c7-14 15-26 26-37c25-25 59-39 95-39c20 0 40 4 57 12c4 2 6 7 5 11c-2 4-7 6-11 5c-10-3-20-5-30-5c-25 0-48 9-65 27c-7 7-12 14-17 23c53 23 87 74 87 132c23-2 43-11 59-27c25-24 33-61 22-94c-2-5 0-9 4-11c5-2 9 0 11 4c24 51 14 113-26 153z m-215 104c25 0 49-7 69-20c-17-20-42-33-70-33c-27 0-52 12-69 32c21 13 45 21 70 21z m-128-130c19-4 35-12 49-26c24-23 31-57 23-87c-43 21-71 64-72 113z m180-115c-9 30-1 65 23 89c15 15 33 24 53 26c0-50-30-95-76-115z m164 101c-20 21-47 32-76 32c-1 0-2 0-3 0c-1 0-1 0-1 0c0 0 0 0 0 0c-28-1-53-12-73-32c-31-31-39-77-24-115c0 0 0-1 0-1c0 0 0 0 0 0c5-13 13-26 24-37c6-5 12-10 18-14c-17 6-32 15-45 28c-14 14-24 32-30 51c-1 3-4 6-8 6c-4 0-7-3-8-6c-6-19-16-37-30-51c-13-13-28-22-45-28c6 4 12 9 18 14c11 12 19 25 24 38c0 0 1 1 1 1c0 0 0 0 0 0c14 39 6 84-25 114c-19 19-42 30-68 32c0 0 0 0 0 0c0 0-1 0-1 0c-2 0-5 0-8 0c-28 0-56-11-76-32c-6-5-10-11-14-17c5 16 15 32 28 44c22 23 51 35 83 35c9 0 19-1 29-4c3-1 7 1 9 4c2 4 1 8-1 10c-21 22-32 51-32 81c0 18 4 36 12 52c-2-8-3-15-3-23c0-23 8-45 20-62c0 0 0-1 0-1c0 0 0 0 1 0c19-27 51-45 87-45c37 0 69 18 89 46c0 0 0 0 0 0c0 1 0 1 0 1c12 17 19 38 19 61c0 8 0 15-2 23c8-16 12-34 12-52c0-30-11-58-32-80c-2-3-3-7-1-10c2-3 5-4 8-4c0 0 0 0 0 0c0 0 0 0 1 0c0 0 0 0 1 0c8 2 17 3 25 3c32 0 61-12 84-35c12-12 22-28 27-44c-4 6-8 12-14 17z m-220 72c-31 0-55-25-55-55c0-31 24-56 55-56c31 0 55 25 55 56c0 30-24 55-55 55z m0-94c-21 0-38 18-38 39c0 21 17 38 38 38c21 0 38-17 38-38c0-21-17-39-38-39z"/>
<glyph unicode="&#122;" d="M402 366c-2 2-5 3-8 3l-151-35l62 166c1 3 1 6-1 8c-1 3-4 4-7 4l-98 0c-3 0-7-3-8-6l-83-294c0-3 0-6 2-8c3-3 6-3 9-3l141 34l-58-135l-17 7c-3 1-6 1-8-1c-3-2-4-5-4-8l13-91c0-3 2-5 5-6c1-1 2-1 3-1c2 0 4 0 5 1l81 53c2 2 4 5 3 8c0 3-2 6-5 7l-16 7l141 280c2 3 1 7-1 10z m-160-291c-1-2-1-4 0-7c1-2 2-4 5-4l10-5l-56-36l-9 63l12-5c4-2 9 0 11 5l68 158c1 3 0 6-2 9c-2 2-5 3-8 3l-144-35l77 274l79 0l-63-169c-1-3-1-7 1-9c2-2 5-3 9-3l148 34z"/>
<glyph unicode="&#65;" d="M244 232c-4-3-6-7-6-12c0-5 2-9 5-13c3-3 8-5 13-5c5 0 9 1 12 5c4 3 6 7 6 12c0 5-2 9-5 13c-7 7-19 7-25 0z m12-13c0 0 0 0 0 0l-1 0l-6-6l6 7c0 0 0 0 0 0c1 0 1 0 1 0c0 0 0-1 0-1z m165 159c-3 4-8 4-12 1c-3-3-3-9 0-12c38-41 57-94 55-150c-2-55-26-107-67-145c-40-37-94-57-149-55c-56 2-107 26-145 67c-78 84-73 216 12 294c19 18 41 32 66 41l0-61c0-3 1-6 4-8c1-1 3-1 4-1c2 0 3 0 4 1c36 19 114 69 117 72c2 1 4 4 4 7c0 2-1 5-4 7c-3 2-81 55-117 75c-2 1-5 1-8 0c-3-2-4-4-4-8l0-65c-29-11-55-26-78-47c-91-85-97-228-12-319c41-44 96-70 156-72c3 0 6 0 9 0c57 0 111 21 153 60c44 41 70 96 72 157c2 60-19 117-60 161z m-223 111c29-18 72-47 92-60c-20-13-63-40-92-57z"/>
<glyph unicode="&#66;" d="M269 207c3 3 5 8 5 13c0 4-2 9-6 12c-7 7-18 6-25 0c-7-8-6-19 1-26c3-3 7-5 12-5c5 1 9 3 13 6z m-14 13c0 0 1 0 1 0l6 6l-6-7c0 0 0 0 0 0l-1 0c0 0 0 0 0 1z m154 171c-23 21-49 36-78 47l0 65c0 4-1 6-4 8c-3 1-6 1-8 0c-36-20-114-73-117-75c-3-2-4-5-4-7c0-3 2-6 4-8c3-2 81-52 117-71c1-1 2-1 4-1c1 0 3 0 4 1c3 2 4 5 4 8l0 61c25-9 47-23 66-41c85-78 90-210 12-294c-38-41-89-65-145-67c-55-2-109 18-149 55c-41 38-65 90-67 145c-2 56 17 109 55 150c3 3 3 9 0 12c-4 3-9 3-12-1c-41-44-62-101-60-161c2-61 28-116 72-157c42-39 96-60 153-60c3 0 6 0 9 0c60 3 115 28 156 72c85 91 79 234-12 319z m-95-19c-29 17-72 44-92 57c20 13 63 42 92 60z"/>
<glyph unicode="&#67;" d="M394 291l-207 207c-9 9-21 14-34 14c-24 0-49-18-49-48l0-410c0-3 0-6 0-9c1-19 12-34 29-40c7-3 14-5 21-5c11 0 21 4 29 11c3 2 6 5 7 7l204 204c19 18 19 50 0 69z m-12-57l-204-205c-2-1-3-3-5-5c-10-8-20-10-33-3c-7 2-18 9-19 26c0 2 0 3 0 6l0 411c0 19 17 31 32 31c6 0 14-2 22-9l207-207c12-13 12-33 0-45z"/>
<glyph unicode="&#68;" d="M359 512c-13 0-25-5-34-14l-207-208c-19-18-19-50 0-68l207-208c10-9 21-14 33-14c7 0 13 1 20 4c19 7 30 24 30 45l0 414c0 30-25 49-49 49z m32-463c0-19-12-26-19-29c-1 0-1 0-1 0c-4-2-9-3-13-3c-7 0-14 3-21 9l-207 208c-12 12-12 32 0 44l207 208c8 7 16 9 22 9c15 0 32-12 32-32z"/>
<glyph unicode="&#69;" d="M436 182c-4 2-9 1-11-4c-10-21-23-39-40-56c-74-71-193-68-264 6c-16 17-28 36-37 56l56 0c0 0 0 0 0 0c5 0 9 4 9 9c0 2-1 4-2 5c-18 33-64 102-66 105c-1 3-4 4-7 4c0 0 0 0 0 0c-3 0-5-1-7-4c-2-3-48-74-66-106c-1-3-1-6 0-9c2-2 5-4 8-4l57 0c9-25 24-48 43-68c40-41 93-62 147-62c51 0 101 18 141 56c18 18 33 38 43 61c2 4 1 9-4 11z m-362 101c12-19 36-56 51-82l-102 0c15 26 39 63 51 82z m437 41c-2 2-5 4-8 4l-57 0c-9 25-24 48-43 68c-77 81-207 84-288 6c-18-18-33-38-43-61c-2-4-1-9 4-11c4-2 9-1 11 4c10 21 23 39 40 56c74 71 193 68 264-6c16-17 28-36 37-56l-56 0c-3 0-6-2-7-4c-2-3-2-6 0-9c17-32 64-103 66-106c1-3 4-4 7-4c0 0 0 0 0 0c3 0 5 1 7 4c2 3 48 74 66 106c1 3 1 6 0 9z m-73-95c-12 19-36 56-51 82l102 0c-15-26-39-63-51-82z m-170 15c4 3 5 7 5 12c1 4-1 8-4 12c-6 6-18 6-24 0c-3-3-5-7-5-12c0-4 1-8 4-12c4-3 8-5 13-5c4 0 8 2 11 5z"/>
<glyph unicode="&#70;" d="M511 197c-18 32-64 103-66 106c-2 3-4 4-7 4c0 0 0 0 0 0c-3 0-6-1-7-4c-2-3-49-74-66-106c-2-3-2-6 0-9c1-2 4-4 7-4l56 0c-9-20-21-39-37-56c-71-74-190-77-264-6c-17 17-30 35-40 56c-2 5-7 6-11 4c-5-2-6-7-4-11c10-23 25-43 43-61c40-38 91-56 141-56c54 0 107 21 147 62c19 20 34 43 43 68l57 0c3 0 6 2 8 4c1 3 1 6 0 9z m-124 4c15 26 39 63 51 82c12-19 36-56 51-82z m-313 4c3 0 6 1 7 4c2 3 49 74 66 106c2 3 2 6 0 9c-1 2-4 4-7 4l-56 0c9 20 21 39 37 56c71 74 190 77 264 6c17-17 30-35 40-56c2-5 7-6 11-4c5 2 6 7 4 11c-10 23-25 43-43 61c-81 78-211 75-288-6c-19-20-34-43-43-68l-57 0c-3 0-6-2-8-4c-1-3-1-6 0-9c18-32 64-103 66-106c1-3 4-4 7-4z m-51 106l102 0c-15-26-39-63-51-82c-12 19-36 56-51 82z m220-43c-3-4-5-8-4-12c0-5 1-9 5-12c3-3 7-5 11-5c5 0 9 2 13 5c3 4 4 8 4 12c0 5-2 9-5 12c-6 6-18 6-24 0z"/>
<glyph unicode="&#71;" d="M511 101c1 1 1 2 1 3l0 166c0 5-4 9-9 9c-4 0-8-4-8-9l0-145l-204 204c-4 3-9 3-12 0l-90-90l-174 175c-4 3-9 3-12 0c-4-3-4-9 0-12l180-181c3-3 9-3 12 0l90 90l198-198l-146 0c-4 0-8-4-8-9c0-5 4-8 8-8l166 0c2 0 3 0 4 0c1 1 2 1 2 2c1 1 2 2 2 3z"/>
<glyph unicode="&#72;" d="M510 414c-4 3-9 3-13 0l-174-175l-90 90c-3 3-8 3-12 0l-204-204l0 145c0 5-4 9-8 9c-5 0-9-4-9-9l0-166c0-1 0-2 1-3c0-1 1-2 2-3c0-1 1-1 2-2c1 0 2 0 4 0l166 0c4 0 8 3 8 8c0 5-4 9-8 9l-146 0l198 198l90-90c3-3 9-3 12 0l181 181c3 3 3 9 0 12z"/>
<glyph unicode="&#73;" d="M451 512l-390 0c-34 0-61-27-61-61l0-390c0-34 27-61 61-61l390 0c34 0 61 27 61 61l0 390c0 34-27 61-61 61z m44-451c0-24-20-44-44-44l-390 0c-24 0-44 20-44 44l0 390c0 24 20 44 44 44l390 0c24 0 44-20 44-44z m-58 371c-1 3-2 4-4 5c-2 1-3 1-4 1l-106 0c-5 0-9-4-9-9c0-4 4-8 9-8l86 0l-126-126c-3-3-3-8 0-12c2-1 4-2 6-2c3 0 5 1 6 2l126 126l0-86c0-5 4-9 8-9c5 0 9 4 9 9l0 106c0 1 0 2-1 3z m-220-203l-126-126l0 86c0 5-4 9-8 9c-5 0-9-4-9-9l0-106c0-1 0-2 1-3c1-3 2-4 4-5c2-1 3-1 4-1l106 0c5 0 9 4 9 9c0 4-4 8-9 8l-86 0l126 126c3 3 3 8 0 12c-4 3-9 3-12 0z"/>
<glyph unicode="&#74;" d="M243 267c-4-3-5-8-5-12c0-5 2-9 5-12c3-4 8-5 12-5c5 0 9 2 13 5c3 3 4 8 4 12c0 5-2 9-5 12c-7 7-18 6-24 0z m-52-2l-162 0l55 54c3 4 3 9 0 13c-3 3-9 3-12 0l-69-70c-1-1-2-2-2-3c-1-1-1-2-1-3c0-1 0-2 1-3c0-1 1-2 2-3l69-70c2-1 4-2 6-2c2 0 4 1 6 2c3 4 3 9 0 13l-55 54l162 0c5 0 9 4 9 9c0 5-4 9-9 9z m320-12c1 1 1 2 1 3c0 1 0 2-1 3c0 1-1 2-2 3l-69 70c-3 3-9 3-12 0c-3-4-3-9 0-13l55-54l-162 0c-5 0-9-4-9-9c0-5 4-9 9-9l162 0l-55-54c-3-4-3-9 0-13c2-1 4-2 6-2c2 0 4 1 6 2l69 70c1 1 2 2 2 3z"/>
<glyph unicode="&#75;" d="M243 267c-4-3-5-8-5-12c0-5 2-9 5-12c3-4 8-5 12-5c5 0 9 2 13 5c3 3 4 8 4 12c0 5-2 9-5 12c-7 7-18 6-24 0z m-44-8c0 1-1 2-1 3l-70 70c-3 3-9 3-12 0c-3-4-3-9 0-13l55-54l-162 0c-5 0-9-4-9-9c0-5 4-9 9-9l162 0l-55-54c-3-4-3-9 0-13c2-1 4-2 6-2c2 0 4 1 6 2l70 70c0 1 1 2 1 3c1 1 1 2 1 3c0 1 0 2-1 3z m304 6l-162 0l55 54c3 4 3 9 0 13c-3 3-9 3-12 0l-70-70c0-1-1-2-1-3c-1-1-1-2-1-3c0-1 0-2 1-3c0-1 1-2 1-3l70-70c2-1 4-2 6-2c2 0 4 1 6 2c3 4 3 9 0 13l-55 54l162 0c5 0 9 4 9 9c0 5-4 9-9 9z"/>
<glyph unicode="&#76;" d="M216 259c0 1-1 2-2 3l-76 76c-3 3-8 3-12 0c-3-3-3-9 0-12l62-61l-179 0c-5 0-9-4-9-9c0-5 4-9 9-9l179 0l-62-61c-3-3-3-9 0-12c2-2 4-2 6-2c3 0 5 0 6 2l76 76c1 1 2 2 2 3c1 2 1 4 0 6z m295-6c1 2 1 4 0 6c0 1-1 2-1 3l-76 76c-4 3-9 3-12 0c-4-3-4-9 0-12l61-61l-179 0c-5 0-9-4-9-9c0-5 4-9 9-9l179 0l-61-61c-4-3-4-9 0-12c1-2 3-2 6-2c2 0 4 0 6 2l76 76c0 1 1 2 1 3z"/>
<glyph unicode="&#77;" d="M503 265l-179 0l62 61c3 3 3 9 0 12c-4 3-9 3-12 0l-76-76c-1-1-2-2-2-3c-1-2-1-4 0-6c0-1 1-2 2-3l76-76c1-2 3-2 6-2c2 0 4 0 6 2c3 3 3 9 0 12l-62 62l179 0c5 0 9 3 9 8c0 5-4 9-9 9z m-295 0l-179 0l61 61c4 3 4 9 0 12c-3 3-8 3-12 0l-75-76c-1-1-2-2-2-3c-1-2-1-4 0-6c0-1 1-2 2-3l75-76c2-2 4-2 6-2c3 0 5 0 7 2c3 3 3 9 0 12l-62 62l179 0c5 0 9 3 9 8c0 5-4 9-9 9z"/>
<glyph unicode="&#78;" d="M451 512l-390 0c-34 0-61-27-61-61l0-390c0-34 27-61 61-61l390 0c34 0 61 27 61 61l0 390c0 34-27 61-61 61z m44-451c0-24-20-44-44-44l-390 0c-24 0-44 20-44 44l0 390c0 24 20 44 44 44l390 0c24 0 44-20 44-44z m-66 137c-4 0-8-4-8-9l0-86l-126 126c-3 3-8 3-12 0c-3-4-3-9 0-12l126-126l-86 0c-5 0-9-4-9-8c0-5 4-9 9-9l106 0c1 0 2 0 3 1c3 1 4 2 5 4c1 2 1 3 1 4l0 106c0 5-4 9-9 9z m-326 223l86 0c5 0 9 4 9 8c0 5-4 9-9 9l-106 0c-1 0-2 0-3-1c-3-1-4-2-5-4c-1-2-1-3-1-4l0-106c0-5 4-9 9-9c4 0 8 4 8 9l0 86l126-126c1-1 3-2 6-2c2 0 4 1 6 2c3 4 3 9 0 12z"/>
<glyph unicode="&#79;" d="M510 262l-77 77c-3 3-9 3-12 0c-3-4-3-9 0-12l62-62l-218 0l0 218l62-62c3-3 8-3 12 0c3 3 3 9 0 12l-77 76c-1 2-4 3-6 3c-2 0-4-1-6-3l-77-76c-3-3-3-9 0-12c2-2 4-3 6-3c3 0 5 1 6 3l62 62l0-218l-218 0l62 62c3 3 3 8 0 12c-3 3-9 3-12 0l-76-77c-1-1-2-2-2-3c-1-1-1-2-1-3c0-1 0-2 1-3c0-1 1-2 2-3l76-77c2-1 4-2 6-2c2 0 5 1 6 2c4 4 4 9 0 12l-62 62l219 0l0-218l-63 62c-3 4-8 4-12 0c-3-3-3-9 0-12l77-77c2-1 4-2 6-2c2 0 4 1 6 2l77 77c3 3 3 9 0 12c-4 3-9 3-12 0l-62-62l0 218l218 0l-62-62c-4-3-4-8 0-12c1-1 4-2 6-2c2 0 4 1 6 2l77 77c1 2 2 4 2 6c0 2-1 4-2 6z"/>
<glyph unicode="&#80;" d="M502 66l-415 0c-39 0-70 32-70 70l0 134c0 39 31 70 70 70l395 0l-89-89c-4-3-4-9 0-12c1-2 4-3 6-3c2 0 4 1 6 3l105 105c3 3 3 8 0 12l-105 104c-4 4-9 4-12 0c-4-3-4-8 0-12l91-91l-397 0c-48 0-87-39-87-87l0-134c0-48 39-87 87-87l415 0c5 0 9 4 9 9c0 4-4 8-9 8z"/>
<glyph unicode="&#81;" d="M425 357l-397 0l91 91c4 4 4 9 0 12c-3 4-8 4-12 0l-104-104c-4-4-4-9 0-12l104-105c2-2 4-3 6-3c2 0 5 1 6 3c4 3 4 9 0 12l-89 89l395 0c39 0 70-31 70-70l0-134c0-38-31-70-70-70l-415 0c-5 0-9-4-9-8c0-5 4-9 9-9l415 0c48 0 87 39 87 87l0 134c0 48-39 87-87 87z"/>
<glyph unicode="&#82;" d="M510 315c-4 4-9 4-13 0l-50-50l0 62c0 43-35 78-78 78l-226 0c-43 0-79-35-79-78c0-5 4-9 9-9c5 0 8 4 8 9c0 34 28 61 62 61l226 0c33 0 61-27 61-61l0-60l-49 49c-3 3-9 3-12 0c-3-4-3-9 0-13l64-64c2-1 4-2 6-2c2 0 5 1 6 2l64 64c4 4 4 9 1 12z m-71-121c-5 0-8-4-8-9c0-34-28-61-62-61l-226 0c-33 0-61 27-61 61l0 60l49-49c2-1 4-2 6-2c2 0 4 1 6 2c3 4 3 9 0 13l-64 64c-4 3-9 3-12 0l-64-64c-4-4-4-9 0-12c3-4 8-4 12 0l50 50l0-62c0-43 35-78 78-78l226 0c43 0 79 35 79 78c0 5-4 9-9 9z"/>
<glyph unicode="&#83;" d="M73 237c2 0 4 1 6 2l64 64c3 4 3 9 0 13c-3 3-9 3-12 0l-49-49l0 60c0 34 28 61 61 61l226 0c34 0 62-27 62-61c0-5 3-9 8-9c5 0 9 4 9 9c0 43-36 78-79 78l-226 0c-43 0-78-35-78-78l0-62l-50 50c-4 4-9 4-12 0c-4-3-4-8 0-12l64-64c1-1 4-2 6-2z m437-28l-65 64c-3 3-8 3-12 0l-64-64c-3-4-3-9 0-13c2-1 4-2 6-2c2 0 4 1 6 2l49 49l0-60c0-34-28-61-61-61l-226 0c-34 0-62 27-62 61c0 5-3 9-8 9c-5 0-9-4-9-9c0-43 36-78 79-78l226 0c43 0 78 35 78 78l0 62l50-50c4-4 9-4 13 0c3 3 3 8 0 12z"/>
<glyph unicode="&#79;" d="M421 164c-4 2-9-1-11-5c-9-26-21-50-37-70c-32-41-74-64-119-63c-45 1-87 26-119 71c-15 20-26 45-35 71l70 0c0 0 0 0 0 0c5 0 9 4 9 8c0 3-1 5-2 6l-81 129c-1 3-4 4-7 4l0 0c-3 0-6-1-7-4l-81-130c-1-3-1-6 0-9c2-2 4-4 8-4l74 0c8-30 21-58 38-81c35-49 82-77 133-78c1 0 2 0 3 0c49 0 95 25 130 70c16 21 30 46 39 74c2 5-1 10-5 11z m-332 126l66-105l-131 0z m422 50c-2 2-4 4-8 4l-72 0c-9 30-21 58-38 81c-35 49-82 77-133 78c-50 1-97-24-133-70c-17-22-30-46-40-74c-1-5 1-10 6-11c4-2 9 1 11 5c9 26 21 50 37 70c32 41 74 64 119 63c45-1 87-26 119-71c15-20 26-45 34-71l-71 0c-3 0-6-2-8-4c-1-3-1-6 1-9l81-130c1-3 4-4 7-4l0 0c3 0 6 1 7 4l81 130c1 3 1 6 0 9z m-88-118l-66 105l131 0z"/>
<glyph unicode="&#84;" d="M511 181l-81 130c-1 3-4 4-7 4l0 0c-3 0-6-1-7-4l-81-130c-2-3-2-6-1-9c2-2 5-4 8-4l70 0c-9-26-20-51-35-71c-31-45-74-70-119-71c-45-1-87 22-119 63c-16 20-28 44-37 70c-2 4-7 7-11 5c-4-1-7-6-5-11c9-28 23-53 39-74c35-45 81-70 130-70c1 0 2 0 3 0c51 1 98 29 133 78c17 23 30 51 38 81l74 0c4 0 6 2 8 4c1 3 1 6 0 9z m-154 4l66 105l65-105z m-268 12c3 0 6 1 7 4l81 130c2 3 2 6 1 9c-2 2-5 4-8 4l-71 0c8 26 19 51 34 71c32 45 74 70 119 71c1 0 2 0 3 0c43 0 85-23 116-63c16-20 28-44 37-70c2-4 7-7 11-5c5 1 7 6 6 11c-10 28-23 52-40 74c-36 46-83 71-133 70c-51-1-98-29-133-78c-17-23-29-51-38-81l-72 0c-4 0-6-2-8-4c-1-3-1-6 0-9l81-130c1-3 4-4 7-4z m-65 130l131 0l-66-105z"/>
<glyph unicode="&#85;" d="M390 166l-126 126l0 191l107-107c2-2 4-3 6-3c3 0 5 1 6 3c4 3 4 9 0 12l-121 121c-1 1-2 2-3 2c-2 1-4 1-6 0c-1 0-2-1-3-2l-122-121c-3-3-3-9 0-12c4-3 9-3 12 0l107 107l0-191l-125-126c-2-2-3-4-3-6l0-151c0-5 4-9 9-9c4 0 8 4 8 9l0 147l120 120l120-120l0-147c0-5 4-9 8-9c5 0 9 4 9 9l0 151c0 2-1 4-3 6z"/>
<glyph unicode="&#86;" d="M490 503c0 3-1 5-2 6c-2 2-4 3-6 3c0 0-1 0-1 0l-145 0c-4 0-8-4-8-9c0-4 4-8 8-8l125 0l-205-205l-205 205l125 0c4 0 8 4 8 8c0 5-4 9-8 9l-145 0c0 0-1 0-1 0c-2 0-4-1-6-3c0 0 0 0 0 0c0 0 0 0 0 0c0 0 0 0 0 0c-1 0-1-1-2-2c0-2 0-3 0-4l0-145c0-5 4-9 8-9c5 0 9 4 9 9l0 125l209-209l0-265c0-5 3-9 8-9c5 0 9 4 9 9l0 265l208 209l0-125c0-5 4-9 9-9c4 0 8 4 8 9l0 145c0 0 0 0 0 0z"/>
<glyph unicode="&#87;" d="M512 287c0 0 0 0 0 0c0 0 0 1 0 1c0 1 0 1-1 2c-1 3-4 6-8 6l-92 0c-4 0-8-4-8-9c0-5 4-8 8-8l72 0l-218-219l0 392l51-50c1-2 3-3 6-3c2 0 4 1 6 3c3 3 3 9 0 12l-66 65c0 0 0 0 0 0c0 0 0 0 0 0c-3 4-8 4-12 0l-65-65c-3-3-3-9 0-12c2-2 4-3 6-3c2 0 4 1 6 3l51 51l0-393l-219 219l72 0c4 0 8 3 8 8c0 5-4 9-8 9l-92 0c-5 0-9-4-9-9c0 0 0 0 0 0c0 0 0 0 0 0l0-92c0-5 4-9 9-9c4 0 8 4 8 9l0 71l232-231c0-1 0-1 1-2c0 0 0 0 0 0c2-2 4-3 6-3c4 0 7 3 8 6l231 230l0-71c0-5 4-9 8-9c5 0 9 4 9 9l0 92c0 0 0 0 0 0z"/>
<glyph unicode="&#88;" d="M267 268c2 0 4 1 6 3l62 62l148 0l-51-51c-3-3-3-8 0-12c2-1 4-2 6-2c2 0 5 1 6 2l65 66c1 0 2 1 2 2c1 2 1 5 0 7c0 1-1 2-2 3l-65 65c-3 3-8 3-12 0c-3-3-3-9 0-12l51-51l-151 0c-3 0-5-1-6-2l-65-65c-4-4-4-9 0-12c1-2 4-3 6-3z m-48-27l-62-62l-148 0c-4 0-8-4-8-9c0-4 4-8 8-8l151 0c3 0 5 1 6 2l65 65c4 4 4 9 0 12c-3 4-8 4-12 0z m292-67c0 1-1 2-2 2l-65 66c-3 3-9 3-12 0c-3-4-3-9 0-12l51-51l-148 0l-166 167c-2 1-4 2-6 2l-154 0c-5 0-9-4-9-8c0-5 4-9 9-9l150 0l167-167c1-1 3-2 6-2l151 0l-51-51c-3-3-3-9 0-12c2-2 4-2 6-2c2 0 5 0 6 2l65 65c1 1 2 2 2 3c1 2 1 5 0 7z"/>
<glyph unicode="&#89;" d="M503 170c-4 0-8-4-8-8l0-133l-227 227l227 227l0-133c0-5 4-8 8-8c5 0 9 3 9 8l0 153c0 5-4 9-9 9l-153 0c-4 0-8-4-8-9c0-4 4-8 8-8l133 0l-227-227l-227 227l133 0c4 0 8 4 8 8c0 5-4 9-8 9l-153 0c-1 0-2 0-4-1c-1 0-1-1-2-2c-1-1-2-1-2-3c-1-1-1-2-1-3l0-153c0-5 4-8 9-8c4 0 8 3 8 8l0 133l227-227l-227-227l0 133c0 4-4 8-8 8c-5 0-9-4-9-8l0-153c0-1 0-3 1-4c0-1 1-2 2-2c0-1 1-2 2-2c1-1 3-1 4-1l153 0c5 0 8 4 8 9c0 4-3 8-8 8l-133 0l227 227l227-227l-133 0c-5 0-8-4-8-8c0-5 3-9 8-9l153 0c3 0 5 1 6 3c2 1 3 3 3 6l0 153c0 4-4 8-9 8z"/>
<glyph unicode="&#90;" d="M412 227c-3 58-28 112-70 151c-22 20-47 36-75 46l0 79c0 4-2 6-5 8c-2 1-6 1-8 0l-150-96c-2-2-4-5-4-8c0-3 2-5 4-7l150-91c1-1 3-2 4-2c2 0 3 1 4 2c3 1 5 4 5 7l0 89c23-9 44-22 63-39c40-37 62-86 65-140c2-54-17-105-54-144c-38-41-92-65-148-65l0 0c-4 0-8-4-8-8c0-5 3-9 9-9c60 0 119 25 160 70c39 43 60 98 58 157z m-162 104l-125 77l125 80z"/>
<glyph unicode="&#48;" d="M130 146l-78 0c-16 0-29-12-29-28l0-90c0-15 13-28 29-28l78 0c15 0 28 13 28 28l0 90c0 16-13 28-28 28z m11-118c0-6-5-11-11-11l-78 0c-6 0-11 5-11 11l0 90c0 6 5 11 11 11l78 0c6 0 11-5 11-11l0-90z m152 215l-78 0c-16 0-28-12-28-28l0-187c0-15 12-28 28-28l78 0c15 0 28 13 28 28l0 187c0 16-13 28-28 28z m11-215c0-6-5-11-11-11l-78 0c-6 0-11 5-11 11l0 187c0 6 5 11 11 11l78 0c6 0 11-5 11-11z m156 337l-78 0c-15 0-28-13-28-29l0-308c0-15 13-28 28-28l78 0c16 0 29 13 29 28l0 308c0 16-13 29-29 29z m11-337c0-6-5-11-11-11l-78 0c-6 0-11 5-11 11l0 308c0 7 5 12 11 12l78 0c6 0 11-5 11-12z m-379 196c2 0 5 0 6 2l257 257l0-75c0-5 4-8 8-8c5 0 9 3 9 8l0 95c0 0 0 0 0 0c0 1 0 1 0 1c0 1 0 2-1 3c-1 3-4 5-8 5l-95 0c-4 0-8-4-8-9c0-4 4-8 8-8l75 0l-257-257c-3-3-3-9 0-12c2-2 4-2 6-2z"/>
<glyph unicode="&#49;" d="M482 161l-86 0c-17 0-31-14-31-30l0-99c0-17 14-31 31-31l86 0c16 0 30 14 30 31l0 99c0 16-14 30-30 30z m13-129c0-8-6-14-13-14l-86 0c-8 0-14 6-14 14l0 99c0 7 6 13 14 13l86 0c7 0 13-6 13-13z m-194 237l-86 0c-16 0-30-14-30-31l0-206c0-17 14-31 30-31l86 0c17 0 31 14 31 31l0 206c0 17-14 31-31 31z m14-237c0-8-6-14-14-14l-86 0c-7 0-13 6-13 14l0 206c0 7 6 13 13 13l86 0c8 0 14-6 14-13l0-206z m-199 370l-86 0c-16 0-30-13-30-30l0-340c0-17 14-31 30-31l86 0c17 0 31 14 31 31l0 340c0 17-14 30-31 30z m14-370c0-8-6-14-14-14l-86 0c-7 0-13 6-13 14l0 340c0 7 6 13 13 13l86 0c8 0 14-6 14-13l0-340z m254 179c-5 0-9-4-9-9c0-4 4-8 9-8l105 0c3 0 6 2 8 5c0 1 0 2 0 4l0 105c0 4-4 8-8 8c-5 0-9-4-9-8l0-85l-285 285c-3 4-9 4-12 0c-3-3-3-9 0-12l285-285z"/>
<glyph unicode="&#50;" d="M445 512c-4 0-8-4-8-9l0-494c0-5 4-9 8-9c5 0 9 4 9 9l0 494c0 5-4 9-9 9z m-127-188c-5 0-8-4-8-9l0-306c0-5 3-9 8-9c5 0 9 4 9 9l0 306c0 5-4 9-9 9z m-251-226c-5 0-9-4-9-9l0-80c0-5 4-9 9-9c4 0 8 4 8 9l0 80c0 5-4 9-8 9z m122 106c-4 0-8-4-8-9l0-186c0-5 4-9 8-9c5 0 9 4 9 9l0 186c0 5-4 9-9 9z"/>
<glyph unicode="&#51;" d="M67 512c-5 0-9-4-9-9l0-494c0-5 4-9 9-9c4 0 8 4 8 9l0 494c0 5-4 9-8 9z m127-188c-5 0-9-4-9-9l0-306c0-5 4-9 9-9c5 0 8 4 8 9l0 306c0 5-3 9-8 9z m251-226c-4 0-8-4-8-9l0-80c0-5 4-9 8-9c5 0 9 4 9 9l0 80c0 5-4 9-9 9z m-122 106c-5 0-9-4-9-9l0-186c0-5 4-9 9-9c4 0 8 4 8 9l0 186c0 5-4 9-8 9z"/>
<glyph unicode="&#52;" d="M511 374c1 2 1 4 0 6c0 1-1 2-2 3l-96 97c-4 3-9 3-12 0c-4-4-4-9 0-12l82-83l-234 0c-3 0-5 0-6-2l-97-96c-3-4-3-9 0-13c2-1 4-2 6-2c2 0 5 1 6 2l94 94l231 0l-82-82c-4-3-4-9 0-12c1-2 3-2 6-2c2 0 4 0 6 2l96 97c1 1 2 2 2 3z m-157-136l-94-94l-231 0l82 82c4 3 4 9 0 12c-3 3-8 3-12 0l-96-97c-1-1-2-2-2-3c-1-2-1-4 0-6c0-1 1-2 2-3l96-97c2-1 4-2 6-2c2 0 5 1 6 2c4 4 4 9 0 12l-82 82l234 0c3 0 5 1 6 3l97 96c3 4 3 9 0 13c-4 3-9 3-12 0z"/>
<glyph unicode="&#53;" d="M483 215c-1 1-2 2-3 2c11 10 19 28 19 36c-1 40-33 57-50 61c0 0-1 0-2 0l-119 0c0 5 2 16 6 22c22 40 36 76 36 97c-6 67-41 77-56 79c-13 1-29-3-32-13c0-1 0-2 0-3c-2-85-20-104-42-119c-20-13-26-29-41-64c-4-10-9-21-15-35c-20-47-52-41-62-38c-3 5-8 8-14 8l-78 0c-9 0-17-7-17-16l0-205c0-9 8-17 17-17l78 0c8 0 14 5 16 12c80-15 151-22 211-22c22 0 42 1 61 3c44 4 60 35 60 53c0 12 3 20 8 23c0 0 0 0 1 0c28 24 25 36 16 53c-1 2-2 4-2 5c-6 13-5 14 5 24c18 15 12 38 3 49c-2 2-3 3-4 5z m-376-188l-77 0l0 204l77 0l0-204z m366 147c-15-14-20-23-10-44c1-2 2-4 3-5c6-12 8-16-12-32c-7-4-15-14-15-37c0-8-8-33-45-36c-71-7-162-1-269 19l0 183c18-3 53-1 75 49c6 14 11 26 15 36c14 34 19 45 35 56c25 16 47 39 49 130c3 1 12 4 22 0c13-5 28-20 32-61c0-17-14-51-34-88c-4-7-12-28-6-40c2-4 5-6 10-7c0 0 0 0 1 0l123 0c5-2 34-11 35-44c-1-5-9-22-16-25c-4-2-6-6-5-9c2-7 5-12 9-16c1-1 2-2 3-4c1 0 12-15 0-25z"/>
<glyph unicode="&#54;" d="M482 502l-78 0c-8 0-14-5-16-12c-108 20-199 26-272 19c-44-4-60-35-60-53c0-12-3-20-8-23c0 0 0 0-1 0c-28-24-25-36-16-53c1-2 2-4 2-5c6-13 5-14-5-24c-18-15-12-38-3-49c2-2 3-3 5-5c0-1 1-2 2-3c-11-9-19-27-19-35c1-40 33-57 50-61c0 0 1 0 2 0l119 0c0-5-2-16-6-22c-22-40-36-76-36-97c6-67 41-77 56-79c1 0 3 0 4 0c13 0 26 5 28 13c0 1 0 2 0 3c2 85 20 104 42 119c20 13 26 29 41 64c4 10 9 21 15 35c20 46 51 41 62 38c3-5 8-8 14-8l78 0c9 0 17 7 17 16l0 205c0 9-8 17-17 17z m-170-261c-6-14-11-26-15-36c-14-34-19-45-35-56c-25-16-47-39-49-130c-3-1-12-4-22 0c-13 5-28 20-32 61c0 17 14 51 34 88c4 7 12 28 6 40c-2 4-5 6-10 7c0 0 0 0-1 0l-123 0c-5 2-34 11-35 44c1 5 9 22 16 25c4 2 6 6 5 9c-2 7-5 12-9 15c-1 2-2 3-3 5c-1 0-12 15 0 25c15 14 20 23 10 44c-1 2-2 4-3 5c-6 12-8 16 12 32c7 4 15 14 15 37c0 8 8 33 45 36c71 7 162 1 269-19l0-183c-18 3-53 0-75-49z m170 40l-77 0l0 204l77 0z"/>
<glyph unicode="&#55;" d="M510 262l-77 77c-3 3-9 3-12 0c-3-4-3-9 0-12l62-62l-218 0l0 218l62-62c3-3 8-3 12 0c3 3 3 9 0 12l-77 76c-1 2-4 3-6 3c-2 0-4-1-6-3l-77-76c-3-3-3-9 0-12c2-2 4-3 6-3c3 0 5 1 6 3l62 62l0-218l-218 0l62 62c3 3 3 8 0 12c-3 3-9 3-12 0l-76-77c-1-1-2-2-2-3c-1-1-1-2-1-3c0-1 0-2 1-3c0-1 1-2 2-3l76-77c2-1 4-2 6-2c2 0 5 1 6 2c4 4 4 9 0 12l-62 62l219 0l0-218l-63 62c-3 4-8 4-12 0c-3-3-3-9 0-12l77-77c2-1 4-2 6-2c2 0 4 1 6 2l77 77c3 3 3 9 0 12c-4 3-9 3-12 0l-62-62l0 218l218 0l-62-62c-4-3-4-8 0-12c1-1 4-2 6-2c2 0 4 1 6 2l77 77c1 2 2 4 2 6c0 2-1 4-2 6z"/>
<glyph unicode="&#56;" d="M493 209c-5 3-13 8-17 11c2 3 7 8 10 11c9 9 16 17 17 25c1 6-1 12-6 17c-4 5-11 7-18 7l-130 10l-4 4l0 18c0 20-16 35-35 35l-18 0l-13 13c-7 7-16 11-25 11c-10 0-19-4-25-11l-13-13l-18 0c-20 0-36-15-36-35l0-18l-4-4l-125-10c-7 0-14-2-18-7c-5-5-7-11-6-17c1-8 8-16 17-25c3-3 8-8 10-11c-4-3-12-8-17-11c-12-7-19-11-19-18c0-6 4-12 7-14c5-5 12-9 20-9c1 0 2 0 3 0c0 0 1 0 1 0l131 37l0-5c0-20 16-35 36-35l18 0l13-13c6-7 15-11 25-11c9 0 18 4 25 11l13 13l18 0c19 0 35 15 35 35l0 6l136-38c0 0 1 0 1 0c1 0 2 0 3 0c8 0 15 4 20 9c3 2 7 8 7 14c0 7-7 11-19 18z m-466-24c-2 0-6 2-8 4c3 2 6 4 9 6c16 9 25 15 26 24c0 8-7 15-16 24c-4 4-12 13-13 15c0 1 1 2 2 3c0 1 2 2 5 2c0 0 1 0 1 0l110 8c-7-13-4-29 6-40l10-10z m283-3l-22 0c-2 0-4-1-6-3l-15-15c-7-7-19-7-26 0l-16 15c-1 2-3 3-6 3l-21 0c-10 0-19 8-19 18l0 22c0 2-1 4-2 6l-15 15c-8 7-8 19 0 26l15 15c1 2 2 4 2 6l0 22c0 10 9 18 19 18l21 0c3 0 5 1 6 3l16 15c7 7 19 7 26 0l15-15c2-2 4-3 6-3l22 0c10 0 18-8 18-18l0-22c0-2 1-4 3-6l7-7c1-1 1-1 1-1l7-7c7-7 7-19 0-26l-15-15c-2-2-3-4-3-6l0-6c0 0 0 0 0 0l0-16c0-10-8-18-18-18z m175 3c0 0 0 0 0 0l-135 37l8 9c11 11 13 27 7 41l114-9c0 0 1 0 1 0c3 0 5-1 5-2c1-1 2-2 2-2c-1-3-9-12-13-16c-9-9-16-16-16-24c1-9 10-15 26-24c3-2 6-4 9-6c-2-2-6-4-8-4z"/>
<glyph unicode="&#57;" d="M498 201c0 1 0 1 0 1l-93 87c0 11-4 23-13 32l-17 17l0 26c0 24-20 44-45 44l-25 0l-18 18c-8 8-19 13-31 13c-12 0-23-5-31-13l-18-18l-25 0c-25 0-45-20-45-44l0-26l-18-17c-8-9-13-21-12-32l-93-87c0 0 0 0 0-1c-9-10-21-24-9-40c6-9 21-8 50-4c13 2 34 5 37 3c4-4 8-30 9-43c4-27 5-36 11-40c2-2 5-4 10-4c8 0 18 4 31 20c0 0 0 0 0 1l51 77l3 0l18-18c8-9 19-13 31-13c12 0 23 4 31 13l18 18l3 0l51-77c0-1 0-1 0-1c13-16 23-20 31-20c5 0 8 2 10 4c6 4 7 13 11 40c1 13 5 39 8 43c5 2 25-1 38-3c29-4 44-5 50 4c12 16 0 30-9 40z m-359-98c-8-9-14-12-16-13c-2 5-4 19-5 29c-3 29-6 48-15 54c-8 7-24 5-50 1c-12-2-30-4-35-3c-2 4-2 7 8 19l85 80c2-4 5-8 8-12l18-18l0-25c0-24 20-44 45-44l1 0z m156 82l-20-20c-10-10-28-10-38 0l-21 20c-1 2-3 3-6 3l-8 0c-2 0-3 0-5 0l-15 0c-15 0-28 12-28 27l0 29c0 2-1 4-2 6l-20 20c-11 11-11 28 0 39l20 20c1 1 2 4 2 6l0 29c0 15 13 27 28 27l28 0c3 0 5 1 6 2l21 21c10 10 28 10 38 0l20-21c2-1 4-2 7-2l28 0c15 0 27-12 27-27l0-29c0-2 1-5 3-6l20-20c11-11 11-28 0-39l-20-20c-2-2-3-4-3-6l0-29c0-15-12-27-27-27l-14 0c-2 1-5 1-8 0l-6 0c-3 0-5-1-7-3z m199-14c-5-1-23 1-35 3c-26 4-42 6-50-1c-9-6-12-25-15-54c-1-10-3-24-5-29c-2 1-8 4-16 13l-44 68l1 0c25 0 45 20 45 44l0 25l17 18c4 4 7 8 9 12l84-80c11-12 11-15 9-19z m-160 144c-1 3-4 5-7 6l-44 6l-19 40c-3 5-13 5-16 0l-19-40l-44-6c-3-1-6-3-7-6c-1-3 0-7 2-9l32-31l-8-44c0-3 1-6 4-8c2-2 6-2 9-1l39 21l39-21c1 0 3-1 4-1c2 0 4 1 5 2c3 2 4 5 3 8l-7 44l32 31c2 2 3 6 2 9z m-49-31c-2-2-3-5-3-7l6-31l-28 14c-1 1-3 1-4 1c-1 0-3 0-4-1l-28-14l5 31c1 2 0 5-2 7l-23 22l32 5c2 0 5 2 6 4l14 29l14-29c1-2 3-4 6-4l31-5z"/>
<glyph unicode="&#33;" d="M509 442c-4 2-9 2-12-2l-147-190c-8 8-17 14-27 19l118 227c2 4 0 9-4 11c-4 2-9 1-11-4l-119-227c-15 6-32 9-50 9c-17 0-34-3-49-9l-120 231c-2 4-7 6-12 4c-4-3-5-8-3-12l119-230c-10-5-19-11-27-18l-150 194c-3 3-8 4-12 1c-3-3-4-8-1-12l150-195c-23-25-37-59-37-96c0-79 64-142 142-142c79 0 142 63 142 142c0 37-14 70-37 95l148 192c3 3 2 9-1 12z m-252-424c-69 0-125 56-125 125c0 69 56 125 125 125c18 0 35-4 50-10c0 0 0-1 0-1c1 0 2 0 2 0c43-20 73-64 73-114c0-69-56-125-125-125z m25 160l-15 32c-2 4-6 6-11 6c-4 0-8-2-10-6l-16-32l-36-6c-4 0-8-3-9-8c-1-4 0-8 3-11l26-25l-6-36c-1-4 1-9 4-11c4-3 9-3 12-1l32 17l32-17c2-1 3-1 5-1c3 0 5 0 7 2c4 2 6 7 5 11l-6 36l25 25c3 3 5 7 3 11c-1 5-5 8-9 8z m2-41c-2-2-3-5-3-8l5-29l-26 14c-2 1-5 1-8 0l-26-14l5 29c1 3 0 6-2 8l-21 20l29 4c3 1 5 2 6 5l13 26l13-26c1-3 4-4 7-5l29-4z"/>
<glyph unicode="&#34;" d="M512 336c0 17-14 31-31 31c-16 0-28-11-31-26l-112-22c-3 4-5 8-7 12c-15 24-31 51-44 72c6 8 10 17 10 27c0 24-19 43-43 43c-23 0-43-19-43-43c0-11 5-21 12-28c-13-21-28-47-42-70c-2-4-5-9-7-13l-112 22c-3 15-15 26-31 26c-17 0-31-14-31-31c0-15 11-28 26-30c16-65 73-207 80-225c1-23 21-42 44-42l211 0c24 0 43 18 44 41c1 1 1 2 1 3c0 0 0 0 0 0c9 21 64 160 80 223c15 2 26 15 26 30z m-31 14c8 0 14-6 14-14c0-7-6-13-14-14c0 0 0 0 0 0c0 1-1 0-1 0c-5 1-10 4-12 9c0 0 0 0 0 0c0 0 0 0 0 0c-1 2-1 3-1 5c0 8 6 14 14 14z m-50-30c-42-23-64-33-72-35c-3 3-7 10-12 19z m-177 136c14 0 26-12 26-26c0-7-3-14-8-18c0-1 0-1-1-1c0 0 0 0 0 0c-5-4-10-7-17-7c-5 0-10 2-14 5c0 0-1 1-2 2c0 0 0 0-1 0c-5 5-9 12-9 19c0 14 12 26 26 26z m-18-65c6-2 12-4 18-4c7 0 14 2 20 5c13-20 28-46 42-69c3-5 5-10 8-14c0 0 0-1 0-1c0-3 2-5 4-6c12-20 17-28 20-31c2-2 4-4 8-4c10 0 33 9 102 48c3-3 7-5 11-7c-16-60-66-186-78-216c-20 1-86 5-135 5c-49 0-116-4-136-5c-11 28-61 156-77 216c4 1 8 4 11 7c69-39 92-48 102-48c4 0 6 2 8 4c3 3 11 17 32 52c13 23 28 49 40 68z m-83-106c-8 2-30 12-72 35l83-17c-4-8-9-15-11-18z m-136 51c0 8 6 14 14 14c8 0 14-6 14-14c0 0 0 0 0 0c0 0 0 0 0-1c0 0 0 0 0-1c0-1-1-1-1-2c0-1 0-1 0-1c-1-1-1-1-1-2c-2-3-6-6-10-6c-1 0-2 0-2-1c0 0 0 0 0 0c-8 1-14 7-14 14z m344-280l-211 0c-12 0-22 8-25 19c23 1 84 5 131 5c46 0 108-3 131-5c-3-11-14-19-26-19z m-114 82c2-3 5-5 8-5c3 0 6 2 7 5l39 69c2 3 2 6 0 9l-39 69c-1 3-4 4-7 4c-3 0-6-1-8-4l-39-69c-2-3-2-6 0-9z m8 126l29-53l-29-52l-30 52z"/>
<glyph unicode="&#35;" d="M408 415l-150 96c-2 1-6 1-8 0c-3-2-5-4-5-8l0-79c-28-10-53-26-75-46c-42-39-67-93-70-151c-2-59 19-114 58-157c41-45 100-70 160-70c5 0 9 4 9 9c0 4-4 8-8 8c0 0 0 0-1 0c-55 0-109 24-147 65c-37 39-56 90-53 144c2 54 24 103 64 140c19 17 40 30 63 39l0-89c0-3 2-6 5-7c1-1 2-2 4-2c1 0 3 1 4 2l150 91c2 2 4 4 4 7c0 3-2 6-4 8z m-146-84l0 157l125-80z"/>
<glyph unicode="&#36;" d="M406 442l-257 0c7 7 10 17 10 27c0 22-18 40-41 40c-22 0-40-18-40-40c0-14 7-27 18-35c0 0 0 0 0-1l0-213c0 0 0 0 0-1l0-213c0-5 4-9 9-9c5 0 8 4 8 9l0 206l293 0c16 0 29 13 29 28l0 173c0 16-13 29-29 29z m-288 50c14 0 24-10 24-23c0-9-4-16-11-21c-2-1-4-4-4-6l-14 0c-1 2-2 4-4 5c-9 4-14 12-14 22c0 13 10 23 23 23z m300-252c0-6-5-11-12-11l-293 0l0 196l293 0c7 0 12-5 12-12z m-72 116l-44 6l-19 40c-2 4-7 7-12 7c-6 0-10-3-13-7l-19-40l-43-6c-6-1-10-4-11-9c-2-5-1-10 3-14l31-31l-7-43c-1-5 1-10 6-13c4-3 9-4 14-1l39 20l39-20c1-1 4-2 6-2c3 0 6 1 8 3c4 3 6 8 5 13l-7 43l31 31c4 4 5 9 4 14c-2 5-6 8-11 9z m-39-45c-2-2-3-4-3-7l7-41l-36 19c-2 1-3 1-4 1c-2 0-3 0-4-1l-37-19l7 41c1 3 0 5-2 7l-30 29l41 6c3 1 5 2 6 5l19 37l18-37c1-3 4-4 6-5l41-6z"/>
<glyph unicode="&#37;" d="M491 304l-32 32l0 49c-1 19-10 37-23 50c-14 13-32 20-51 20l-45 0l-35 35c-13 12-31 18-49 18l-2 0c-18 0-37-8-50-21l-32-32l-49 0c-18-1-37-9-49-23c-13-13-21-32-21-51l0-45l-34-34c-13-14-20-33-19-51c0-19 8-38 21-50l32-32l0-49c1-19 10-37 23-50c14-13 32-20 51-20l48 0c11-10 23-21 35-31c13-10 28-15 44-15c1 0 3 0 4 0c17 1 33 8 45 20c9 9 18 18 28 27c19 1 38 2 58 4c17 2 33 10 44 23c12 13 18 29 18 46c0 12 0 24 0 37l42 42c13 14 20 33 19 51c0 19-8 38-21 50z m-10-89l-44-44c-2-2-3-4-3-6c0-15 0-28 0-41c0-13-5-25-13-35c-9-9-21-16-33-17c-21-2-41-3-61-4c-2 0-4-1-5-2c-11-10-22-20-32-30c-8-9-20-15-33-15c-13-1-26 3-36 11c-12 11-25 22-37 33c-2 1-4 2-6 2l-51 0c-14 0-29 6-39 16c-10 9-17 23-17 37l-1 52c0 2 0 4-2 6l-35 35c-10 10-16 24-16 38c0 14 5 29 14 39l37 37c2 1 2 4 2 6l0 48c0 15 6 29 16 39c10 11 24 17 38 18l52 0c2 0 4 1 6 2l34 35c10 10 24 16 39 16l1 0c14 0 28-5 38-14l36-36c2-2 4-3 6-3l49 0c14 0 29-6 39-16c10-9 17-23 17-37l1-52c0-2 0-5 2-6l35-35c10-10 16-24 16-38c0-14-5-29-14-39z m-76 64c5 0 9 4 9 9c0 4-4 8-9 8l-56 0c-4 0-8-4-8-8l0-79c0-2 1-5 2-6c2-2 4-3 6-3l56 0c5 0 9 4 9 9c0 5-4 8-9 8l-47 0l0 22l47 0c5 0 9 4 9 9c0 5-4 8-9 8l-47 0l0 23l47 0z m-166 13c-7 4-14 6-22 6c-6 0-11-1-16-3c-5-3-9-6-13-10c-4-4-6-9-8-16c-2-6-3-12-3-19c0-8 1-14 3-20c2-7 5-12 8-16c4-5 8-8 13-10c5-2 11-3 16-3c8 0 15 2 21 5c6 4 11 10 15 17c3 8 5 16 5 27c0 9-2 17-5 25c-3 7-8 13-14 17z m-2-61c-2-5-4-8-8-10c-6-4-15-4-21-1c-2 1-5 2-7 5c-2 2-4 6-5 10c-1 4-2 9-2 15c0 5 1 10 2 14c1 4 3 7 5 10c2 2 4 4 7 5c3 1 6 2 9 2c5 0 9-1 13-3c3-3 6-6 8-10c2-5 3-11 3-18c0-8-1-14-4-19z m85 65l-56 0c-4 0-8-4-8-9c0-4 4-8 8-8l20 0l0-70c0-5 4-9 9-9c4 0 8 4 8 9l0 70l19 0c5 0 9 4 9 8c0 5-4 9-9 9z m-157-2c-5 3-10 1-12-3l-28-57l-28 56c-2 4-7 6-11 4c-4-2-6-7-4-11l35-72c2-3 5-5 8-5c3 0 6 2 8 5l35 72c3 4 1 9-3 11z"/>
<glyph unicode="&#38;" d="M437 321l0 35c0 55-79 98-181 98c-102 0-181-43-181-98l0-35c-48-26-75-60-75-97c0-77 112-137 256-137c144 0 256 60 256 137c0 37-27 71-75 97z m-345-7c29-34 90-56 164-56c74 0 135 22 164 56c0 0 0-1 0-1l0-60c0-44-75-81-164-81c-89 0-164 37-164 81z m164 123c89 0 164-37 164-81c0-44-75-81-164-81c-89 0-164 37-164 81c0 44 75 81 164 81z m0-333c-132 0-239 53-239 120c0 28 21 55 58 77l0-48c0-55 79-98 181-98c102 0 181 43 181 98l0 48c37-22 58-49 58-77c0-67-107-120-239-120z"/>
<glyph unicode="&#39;" d="M508 408c-7 18-19 27-38 27c-8 0-17-2-26-4c-17-3-79-23-177-125c-32-34-58-66-78-94c-10 12-20 22-29 32c-39 38-82 66-87 69c-8 4-16 7-25 7c-17 0-32-9-41-23c-14-23-7-52 16-66c1-1 38-24 69-55c31-31 60-73 63-77c9-14 24-22 40-22c2 0 5 1 8 1c18 3 33 17 38 35c1 4 19 45 96 127c64 68 107 90 122 96l0 0c6 2 26 11 26 11c23 10 33 35 23 61z m-30-45c0-1-23-10-25-11c0 0 0 0 0 0c-16-7-62-30-129-100c-86-91-100-134-100-134c-3-12-12-21-24-23c-12-2-24 3-31 13c-3 5-33 48-65 80c-32 32-68 55-72 58c-15 9-19 28-10 42c5 9 15 15 26 15c5 0 11-2 16-5c4-3 46-29 84-66c11-12 23-25 35-40c1-2 4-3 7-3c2 0 5 2 6 4c21 30 49 64 84 101c96 101 156 118 167 120c9 2 16 4 23 4c10 0 17-3 22-16c7-17 1-33-14-39z"/>
<glyph unicode="&#40;" d="M327 256l144 167c9 11 14 25 13 39c-1 15-8 28-19 37c-9 8-22 13-35 13c-15 0-30-7-40-19l-134-155l-134 155c-10 12-25 19-40 19c-13 0-26-5-35-13c-11-9-18-22-19-37c-1-14 4-28 13-39l144-167l-144-167c-9-11-14-25-13-39c1-15 8-28 19-37c9-8 22-13 35-13c15 0 30 7 40 19l134 155l134-155c10-12 25-19 40-19c13 0 26 5 35 13c11 9 18 22 19 37c1 14-4 28-13 39z m127-230c-6-6-15-9-24-9c-10 0-20 5-27 13l-141 162c-1 2-4 3-6 3c-2 0-5-1-6-3l-141-162c-7-8-17-13-27-13c-9 0-18 3-24 9c-8 6-12 15-13 25c-1 10 3 19 9 26l149 173c3 4 3 8 0 12l-149 173c-6 7-9 16-9 26c1 10 5 19 13 25c6 6 15 9 24 9c10 0 20-5 27-13l141-162c1-2 4-3 6-3c2 0 5 1 6 3l141 162c7 8 17 13 27 13c9 0 18-3 24-9c8-6 12-15 13-25c1-10-3-19-9-26l-149-173c-3-4-3-8 0-12l149-173c6-7 10-16 9-26c-1-10-5-19-13-25z"/>
<glyph unicode="&#41;" d="M512 449c-1 21-14 37-30 37c-1 0-1 0-2 0l-92-20c-10 12-24 19-39 19l-187 0c-15 0-29-7-38-19l-92 20c-1 0-1 0-2 0c-16 0-29-16-30-37c0-6-4-58 51-114c27-28 45-42 62-47c5-45 29-84 65-109c-5-6-7-13-7-17c0-12 8-23 24-31l8-42c-31-10-49-30-49-55c0-4 4-8 8-8l187 0c5 0 9 4 9 8c0 25-18 44-48 54l9 43c15 8 23 19 23 31c0 5-1 11-7 18c35 24 58 63 63 108c17 5 36 19 63 47c55 56 51 108 51 114z m-63-103c-27-28-45-41-60-43c-4-1-7-4-7-8c-3-45-28-85-66-106c-3-2-4-5-4-8c0-3 1-5 3-7c4-2 10-7 10-12c0-6-7-12-17-17c-3-1-5-3-5-6l-11-55c-1-4 1-9 6-10c11-3 36-12 41-31l-167 0c6 20 32 29 43 32c5 1 7 5 6 10l-10 54c-1 3-3 5-5 6c-11 5-18 11-18 17c0 5 6 9 9 12c3 1 4 4 4 7c0 3-2 6-5 7c-38 22-63 62-66 107c0 5-4 8-8 8c-15 3-32 16-59 43c-52 54-46 100-46 102c0 0 0 0 0 1c0 10 6 19 12 20l92-20c1-1 2-1 3-2c4-1 8 1 10 4c6 10 17 17 28 17l187 0c11 0 22-6 28-16c2-3 5-5 9-4l97 21c6-1 12-10 12-20c0 0 0-1 0-1c0-2 6-48-46-102z m-134 80l-119 0c-9 0-15-7-15-15l0-57c0-8 6-15 15-15l119 0c8 0 15 7 15 15l0 57c0 8-7 15-15 15z m-2-70l-115 0l0 53l115 0z"/>
<glyph unicode="&#42;" d="M371 482c-46 0-89-22-116-59c-26 37-68 59-114 59c-82 0-141-59-141-141c0-116 200-280 223-298c8-8 20-13 32-13c12 0 23 5 31 12c23 19 226 186 226 299c0 82-59 141-141 141z m-96-427c-11-10-29-11-41 1c-9 7-217 175-217 285c0 72 52 124 124 124c42 0 81-21 104-57l4-4c1-2 4-4 6-4c0 0 0 0 0 0c3 0 5 2 7 4l5 7c24 34 62 54 104 54c72 0 124-52 124-124c0-107-211-278-220-286z"/>
<glyph unicode="&#43;" d="M477 450c-2 2-5 3-7 2c-7-1-13-1-19-2c-26-1-51 0-74 4c-75 14-114 55-115 55c-1 2-4 3-6 3l0 0c-2 0-5-1-6-3c-1 0-58-59-168-59c-13 0-26 1-40 2c-2 1-5 0-6-2c-2-1-3-4-3-6l0-211c-1-18 9-54 34-92c11-16 23-32 37-46c40-41 92-73 154-95c1 0 2 0 3 0c1 0 2 0 3 1c206 87 215 225 215 231l0 212c0 2-1 5-2 6z m-216-432c-58 20-107 50-144 89c-14 13-25 28-35 43c-25 37-33 70-32 82l0 202c11-1 22-1 32-1c98 0 156 43 174 59c14-13 54-43 118-54c24-5 51-6 78-5c4 1 7 1 10 1l0-201c0-2-9-132-201-215z m108 282l-72 11l-33 65c-3 6-12 6-15 0l-32-65l-73-11c-3 0-6-2-7-6c-1-3 0-6 3-8l52-51l-12-72c-1-3 0-7 3-9c1-1 3-1 5-1c1 0 3 0 4 1l65 34l64-34c3-2 7-2 9 0c3 2 4 6 4 9l-13 72l53 51c2 2 3 5 2 8c-1 4-4 6-7 6z m-63-56c-2-2-3-5-2-8l10-59l-53 28c-3 1-6 1-8 0l-54-28l10 59c1 3 0 6-2 8l-43 42l59 9c3 0 6 2 7 4l27 54l26-54c1-2 4-4 7-4l59-9z"/>
<glyph unicode="&#44;" d="M324 258c3 2 4 5 3 8l-11 66l48 46c2 3 3 6 2 9c-1 3-4 5-7 6l-66 9l-29 60c-3 6-13 6-16 0l-29-60l-66-9c-3-1-6-3-7-6c-1-3 0-6 2-9l48-46l-11-66c-1-3 0-6 3-8c2-1 3-2 5-2c2 0 3 1 4 1l59 31l59-31c3-1 6-1 9 1z m-64 47c-1 1-3 1-4 1c-1 0-3 0-4-1l-48-25l10 53c0 3-1 6-3 8l-38 37l53 8c3 1 5 2 6 5l24 48l24-48c1-3 3-4 6-5l53-8l-38-37c-2-2-3-5-3-8l10-53z m252-129c-1 3-4 5-7 6l-66 9l-30 60c-1 3-4 5-7 5c-4 0-6-2-8-5l-29-60l-66-9c-3-1-6-3-7-6c-1-3 0-7 2-9l48-46l-12-66c0-3 1-6 4-8c2-2 6-2 9-1l59 31l59-31c1 0 2-1 4-1c1 0 3 1 5 2c2 2 4 5 3 8l-11 66l47 46c3 2 4 6 3 9z m-65-46c-2-2-3-5-3-8l9-53l-47 25c-3 2-6 2-8 0l-48-25l9 53c1 3 0 6-2 8l-39 37l54 8c2 0 5 2 6 5l24 48l24-48c1-3 3-5 6-5l53-8z m-234 52l-66 9l-29 60c-3 6-13 6-15 0l-30-60l-66-9c-3-1-6-3-7-6c-1-3 0-7 3-9l47-46l-11-66c-1-3 1-6 3-8c2-1 4-2 5-2c2 0 3 1 4 1l59 31l59-31c3-1 6-1 9 1c3 2 4 5 4 8l-12 66l48 46c2 2 3 6 2 9c-1 3-4 5-7 6z m-58-52c-2-2-3-5-2-8l9-53l-48 25c-1 1-2 1-4 1c-1 0-2 0-4-1l-47-25l9 53c0 3-1 6-3 8l-38 37l53 8c3 0 5 2 6 5l24 48l24-48c1-3 4-5 6-5l54-8z"/>
<glyph unicode="&#45;" d="M303 261c2 0 3 0 5 1c2 2 4 5 3 9l-7 43l31 30c2 2 3 6 2 9c-1 3-3 5-7 6l-43 6l-19 39c-3 6-13 6-16 0l-19-39l-43-6c-3-1-6-3-7-6c-1-3 0-7 2-9l31-30l-7-43c0-4 1-7 3-9c3-2 7-2 9 0l39 20l39-20c1-1 2-1 4-1z m-39 38c-1 1-2 1-4 1c-1 0-3 0-4-1l-27-14l5 30c1 3 0 6-2 8l-22 21l30 5c3 0 5 2 6 4l14 28l14-28c1-2 3-4 6-4l31-5l-22-21c-2-2-3-5-3-8l5-30z m248 54c-1 3-4 5-7 6l-44 6l-19 39c-3 6-12 6-15 0l-19-39l-44-6c-3-1-6-3-7-6c-1-3 0-7 3-9l31-30l-8-43c0-4 1-7 4-9c2-2 6-2 9 0l38 20l39-20c1-1 3-1 4-1c2 0 4 0 5 1c3 2 4 5 4 9l-8 43l31 30c3 2 4 6 3 9z m-49-30c-2-2-3-5-2-8l5-30l-28 14c-1 1-2 1-4 1c-1 0-2 0-3-1l-28-14l5 30c1 3 0 6-2 8l-22 21l30 5c3 0 6 2 7 4l13 28l14-28c1-2 4-4 7-4l30-5z m-52-123l-43 6l-19 39c-2 3-5 5-8 5c-3 0-6-2-7-5l-20-39l-43-6c-3-1-6-3-7-6c-1-3 0-6 2-9l32-30l-8-43c0-3 1-7 4-9c2-1 6-2 9 0l38 20l39-20c1-1 2-1 4-1c2 0 3 0 5 1c2 2 4 6 3 9l-7 43l31 30c2 3 3 6 2 9c-1 3-3 5-7 6z m-41-36c-2-2-3-5-3-8l5-30l-27 14c-2 2-5 2-8 0l-27-14l5 30c1 3 0 6-2 8l-22 22l30 4c3 0 5 2 6 5l14 27l14-27c1-3 3-5 6-5l31-4z m-245 100c3 1 4 5 4 8l-8 43l31 30c3 3 4 6 3 9c-1 3-4 5-7 6l-43 6l-20 39c-3 6-12 6-15 0l-19-39l-44-6c-3-1-6-3-7-6c-1-3 0-6 3-9l31-30l-8-43c0-3 1-7 4-9c1-1 3-1 5-1c1 0 3 0 4 1l39 20l38-20c3-2 7-1 9 1z m-44 36c-1 1-2 1-3 1c-2 0-3 0-4-1l-28-14l5 30c1 3 0 6-2 8l-22 22l30 4c3 0 6 2 7 5l14 27l13-27c1-3 4-5 7-5l30-4l-22-22c-2-2-3-5-2-8l5-30z m157-94l-43 6l-19 39c-3 6-13 6-16 0l-19-39l-43-6c-3-1-6-3-7-6c-1-3 0-6 2-9l31-30l-7-43c-1-3 1-7 3-9c2-1 4-1 5-1c2 0 3 0 4 1l39 20l39-20c3-2 6-2 9 0c2 2 4 6 3 9l-7 43l31 30c2 3 3 6 2 9c-1 3-4 5-7 6z m-41-36c-2-2-3-5-3-8l5-30l-27 14c-1 1-3 1-4 1c-1 0-3 0-4-1l-27-14l5 30c0 3 0 6-2 8l-23 21l31 5c3 0 5 2 6 5l14 27l14-27c1-3 3-5 6-5l31-5z"/>
<glyph unicode="&#46;" d="M452 466l-392 0c-33 0-60-26-60-60l0-228c0-33 27-60 60-60l256 0l46-66c1 0 1-1 1-1c4-4 9-5 14-5c5 0 9 1 13 5c0 0 1 1 1 1l47 66l14 0c33 0 60 27 60 60l0 228c0 34-27 60-60 60z m43-288c0-24-19-43-43-43l-19 0c-3 0-5-1-7-3l-48-69c-1-1-2-1-2 0l-49 69c-2 2-4 3-7 3l-260 0c-24 0-43 19-43 43l0 228c0 24 19 43 43 43l392 0c24 0 43-19 43-43l0-228z m-345 152c-23 0-42-19-42-42c0-23 19-42 42-42c24 0 42 19 42 42c0 23-18 42-42 42z m0-67c-13 0-25 11-25 25c0 14 12 25 25 25c14 0 25-11 25-25c0-14-11-25-25-25z m105 67c-23 0-42-19-42-42c0-23 19-42 42-42c24 0 43 19 43 42c0 23-19 42-43 42z m0-67c-13 0-25 11-25 25c0 14 12 25 25 25c14 0 25-11 25-25c0-14-11-25-25-25z m103 67c-23 0-42-19-42-42c0-23 19-42 42-42c24 0 42 19 42 42c0 23-18 42-42 42z m0-67c-13 0-25 11-25 25c0 14 12 25 25 25c14 0 25-11 25-25c0-14-11-25-25-25z"/>
<glyph unicode="&#47;" d="M452 466l-392 0c-33 0-60-26-60-60l0-228c0-33 27-60 60-60l256 0l46-66c1 0 1-1 1-1c4-4 9-5 14-5c5 0 9 1 13 5c0 0 1 1 1 1l47 66l14 0c33 0 60 27 60 60l0 228c0 34-27 60-60 60z m43-288c0-24-19-43-43-43l-19 0c-3 0-5-1-7-3l-48-69c-1-1-2-1-2 0l-49 69c-2 2-4 3-7 3l-260 0c-24 0-43 19-43 43l0 228c0 24 19 43 43 43l392 0c24 0 43-19 43-43z m-178 202c-15 0-28-5-38-15c-10-10-16-22-16-37c0-14 6-26 16-36c9-9 19-14 29-15c-1-6-3-11-6-14c-4-6-12-12-21-18c-11-5-17-14-17-26c0-8 3-14 8-20c6-5 13-8 21-8c12 0 24 6 37 17c12 10 23 24 31 42c9 17 13 36 13 56c0 23-5 41-15 54c-11 13-25 20-42 20z m29-123c-7-15-16-27-27-36c-10-8-19-12-26-12c-4 0-7 0-9 2c-2 2-2 5-2 8c0 5 2 9 7 12c12 6 21 14 27 21c6 8 10 19 11 32c0 3-1 5-3 7c-1 1-4 2-6 2l-3 0c-9 0-17 4-24 11c-7 7-11 15-11 24c0 10 4 18 11 25c7 6 16 10 26 10c12 0 21-5 28-14c8-9 12-24 12-43c0-17-4-34-11-49z m-155 123c-15 0-27-5-38-15c-10-10-15-22-15-37c0-14 5-26 15-36c9-9 19-14 30-15c-2-6-4-10-7-14c-5-6-12-12-21-17c-10-6-16-15-16-27c0-7 3-14 8-19c5-6 12-9 20-9c12 0 24 6 37 17c13 10 23 25 31 42c9 18 13 37 13 56c0 23-5 41-15 53c-11 14-25 21-42 21z m29-123c-7-15-16-27-27-36c-10-8-18-12-26-12c-4 0-7 1-8 3c-2 2-3 4-3 7c0 5 2 9 7 12c11 6 20 13 26 21c7 8 11 19 12 32c0 3-1 5-2 7c-2 1-4 2-6 2l-5 0c-8 0-16 4-23 11c-7 7-10 15-10 24c0 10 3 18 10 25c7 6 16 10 26 10c12 0 21-5 28-14c8-10 12-24 12-43c0-17-4-33-11-49z"/>
<glyph unicode="&#58;" d="M452 466l-392 0c-33 0-60-26-60-60l0-228c0-33 27-60 60-60l256 0l46-66c1 0 1-1 1-1c4-4 9-5 14-5c5 0 9 1 13 5c0 0 1 1 1 1l47 66l14 0c33 0 60 27 60 60l0 228c0 34-27 60-60 60z m43-288c0-24-19-43-43-43l-19 0c-3 0-5-1-7-3l-48-69c-1-1-2-1-2 0l-49 69c-2 2-4 3-7 3l-260 0c-24 0-43 19-43 43l0 228c0 24 19 43 43 43l392 0c24 0 43-19 43-43l0-228z m-47 197l-379 0c-5 0-9-3-9-8c0-5 4-9 9-9l379 0c4 0 8 4 8 9c0 5-4 8-8 8z m0-153l-379 0c-5 0-9-4-9-9c0-5 4-9 9-9l379 0c4 0 8 4 8 9c0 5-4 9-8 9z m0 77l-379 0c-5 0-9-4-9-8c0-5 4-9 9-9l379 0c4 0 8 4 8 9c0 4-4 8-8 8z"/>
<glyph unicode="&#59;" d="M452 466l-392 0c-33 0-60-26-60-60l0-228c0-33 27-60 60-60l256 0l46-66c1 0 1-1 1-1c4-4 9-5 14-5c5 0 9 1 13 5c0 0 1 1 1 1l47 66l14 0c33 0 60 27 60 60l0 228c0 34-27 60-60 60z m43-288c0-24-19-43-43-43l-19 0c-3 0-5-1-7-3l-48-69c-1-1-2-1-2 0l-49 69c-2 2-4 3-7 3l-260 0c-24 0-43 19-43 43l0 228c0 24 19 43 43 43l392 0c24 0 43-19 43-43z m-185 222c-21 0-41-10-55-25c-13 15-33 25-54 25c-42 0-72-30-72-72c0-57 97-137 108-145c5-5 11-7 18-7c7 0 13 2 18 6c11 9 109 90 109 146c0 42-30 72-72 72z m-49-205c-3-3-9-4-13 1c-38 30-102 92-102 132c0 32 23 55 55 55c18 0 35-10 46-26l2-2c1-2 4-3 6-3l0 0c3 0 5 1 7 3l3 4c10 15 27 24 45 24c32 0 55-23 55-55c0-39-67-104-104-133z"/>
<glyph unicode="&#60;" d="M452 466l-392 0c-33 0-60-27-60-60l0-228c0-33 27-60 60-60l256 0l46-66c1 0 1-1 1-1c4-4 9-6 14-6c5 0 9 2 13 6c0 0 1 1 1 1l47 66l14 0c33 0 60 27 60 60l0 228c0 33-27 60-60 60z m43-288c0-24-19-43-43-43l-19 0c-3 0-5-1-7-3l-48-69c-1-1-2-1-2 0l-49 69c-2 2-4 3-7 3l-260 0c-24 0-43 19-43 43l0 228c0 24 19 43 43 43l392 0c24 0 43-19 43-43z m-219 242c-5 8-13 12-21 12c-9 0-17-4-22-12l-131-225c-4-7-4-17 0-24c5-8 13-13 22-13l261 0c14 0 25 11 25 25c0 5-1 10-4 14z m109-245l-261 0c-3 0-6 2-7 4c-1 2-1 5 0 8l131 224c1 3 4 4 7 4c2 0 5-1 6-4l131-224c1-1 1-2 1-4c0-4-3-8-8-8z m-139 40c-3-3-4-6-4-10c0-4 1-7 4-10c3-2 6-3 9-3c4 0 7 1 9 3c3 3 5 6 5 10c0 4-2 7-4 10c-6 5-14 5-19 0z m12-12c-2-2-4-2-5 0c-1 0-2 1-2 2c0 1 1 2 2 3c1 1 1 1 2 1c1 0 2 0 2-1c1-1 2-2 2-3c0-1-1-2-1-2z m-3 20c5 0 9 4 9 9l0 149c0 5-4 9-9 9c-5 0-8-4-8-9l0-149c0-5 3-9 8-9z"/>
<glyph unicode="&#61;" d="M452 466l-392 0c-33 0-60-27-60-60l0-228c0-33 27-60 60-60l256 0l46-66c1 0 1-1 1-1c4-4 9-6 14-6c5 0 9 2 13 6c0 0 1 1 1 1l47 66l14 0c33 0 60 27 60 60l0 228c0 33-27 60-60 60z m43-288c0-24-19-43-43-43l-19 0c-3 0-5-1-7-3l-48-69c-1-1-2-1-2 0l-49 69c-2 2-4 3-7 3l-260 0c-24 0-43 19-43 43l0 228c0 24 19 43 43 43l392 0c24 0 43-19 43-43l0-228z m-72 178l-73 37l-40 38c-1 2-4 3-6 3l-124 0c-11 0-19-9-19-19l0-28l-61-31c-3-1-5-4-5-7l0-25c0 0 0-1 0-1l0-149c0-13 10-23 23-23l287 0c12 0 23 10 23 23l-1 148c0 1 1 1 1 2l0 25c0 3-2 6-5 7z m-12-27l-58-32l0 75l58-29z m-231 88l121 0l35-35l0-94l-74-40l-84 45l0 89c0 0 0 0 0 1l0 32c0 1 1 2 2 2z m-19-49l0-66l-49 27l0 14z m244-200l-287 0c-3 0-6 3-6 6l0 135l146-79c3-1 6-1 9 0l80 45c1 0 3 1 4 2l59 32l1-135c0-3-3-6-6-6z"/>
<glyph unicode="&#62;" d="M293 109c-1 10-1 16-2 20c6 9 23 39 25 79l0 1c1 41-23 66-66 68l0 0c0 0-1 0-1 0l0 0c-42-2-66-27-66-68l0-1c2-40 19-70 25-79c0-4-1-10-1-20c-93-23-108-55-110-59c0-1 0-2 0-3l0-38c0-5 3-9 8-9l289 0c5 0 9 4 9 9l0 38c0 1-1 2-1 3c-1 4-17 36-109 59z m-43 151c1 0 2 0 3 0c-1 0-2 0-3 0z m7 5c0-1-1-1-1-2c0 1 1 1 1 2z m-2-3c0-1-1-1-2-1c1 0 2 1 2 1z m131-245l-272 0l0 28c4 6 24 30 103 49c4 1 7 5 7 9c0 16 1 27 1 27c1 2 0 4-1 6c0 1-22 31-24 72l0 1c0 32 16 49 50 50c0 0 0 0 0 0c33-1 49-18 49-50l0 0c-2-42-23-73-24-73c-1-2-2-4-1-6c0 0 2-11 2-27c0-4 2-8 6-9c79-19 100-44 104-49l0-28z m-9 495l-230 0c-21 0-39-17-39-39l0-133c0-22 18-39 39-39l148 0l26-37c1-1 1-1 1-1c3-3 7-5 11-5c3 0 7 2 10 5c0 0 1 0 1 1l26 37l7 0c21 0 38 17 38 39l0 133c0 22-17 39-38 39z m21-172c0-12-9-22-21-22l-11 0c-3 0-6-2-7-4l-26-37l-27 37c-1 2-4 4-7 4l-152 0c-12 0-22 10-22 22l0 133c0 12 10 22 22 22l230 0c12 0 21-10 21-22z m-24 119l-222 0c-5 0-8-4-8-9c0-5 3-8 8-8l222 0c5 0 9 3 9 8c0 5-4 9-9 9z m0-91l-222 0c-5 0-8-3-8-8c0-5 3-9 8-9l222 0c5 0 9 4 9 9c0 5-4 8-9 8z m0 46l-222 0c-5 0-8-4-8-9c0-4 3-8 8-8l222 0c5 0 9 4 9 8c0 5-4 9-9 9z"/>
<glyph unicode="&#63;" d="M415 360c-54 0-97-34-97-76c0-13 4-25 11-36l-10-35c-1-3 0-6 2-9c1-1 4-2 6-2c1 0 1 0 2 0l47 12c12-4 25-6 39-6c53 0 97 34 97 76c0 42-44 76-97 76z m0-135c-13 0-25 2-36 6c-2 1-3 1-5 1l-35-10l8 25c1 3 0 6-2 8c-6 9-10 19-10 29c0 32 36 59 80 59c44 0 80-27 80-59c0-33-36-59-80-59z m-35 75c-8 0-14-7-14-15c0-8 6-15 14-15c9 0 15 7 15 15c0 8-6 15-15 15z m-2-15c0 1 1 2 2 2c2 0 3-1 3-2c0-3-5-3-5 0z m39 15c-8 0-15-7-15-15c0-8 7-15 15-15c8 0 15 7 15 15c0 8-7 15-15 15z m-2-15c0 1 1 2 2 2c1 0 2-1 2-2c0-3-4-3-4 0z m38 15c-8 0-15-7-15-15c0-8 7-15 15-15c8 0 15 7 15 15c0 8-7 15-15 15z m-2-15c0 1 1 2 2 2c1 0 2-1 2-2c0-3-4-3-4 0z m-201 84l7-46c0-3 2-6 6-7c0 0 1 0 2 0c2 0 5 1 6 2l34 38c51 2 93 35 93 76c0 42-44 76-97 76c-54 0-97-34-97-76c0-14 6-30 14-40c11-12 25-19 32-23z m51 122c44 0 80-27 80-59c0-33-36-59-80-59c-3 0-5-1-7-3l-23-26l-5 33c-1 3-3 5-5 6c-1 0-18 7-30 21c-5 5-10 17-10 28c0 32 36 59 80 59z m-34-73c8 0 15 7 15 15c0 8-7 15-15 15c-8 0-15-7-15-15c0-8 7-15 15-15z m0 17c1 0 2-1 2-2c0-2-4-2-4 0c0 1 1 2 2 2z m36-17c9 0 15 7 15 15c0 8-6 15-15 15c-8 0-14-7-14-15c0-8 6-15 14-15z m0 17c2 0 3-1 3-2c0-2-5-3-5 0c0 1 1 2 2 2z m37-17c8 0 14 7 14 15c0 8-6 15-14 15c-9 0-15-7-15-15c0-8 6-15 15-15z m0 17c1 0 2-1 2-2c0-2-5-2-5 0c0 1 1 2 3 2z m-157-179c1 0 1 0 2 0c2 0 5 1 6 3c2 2 3 5 2 8l-10 36c7 11 11 23 11 35c0 42-44 76-97 76c-53 0-97-34-97-76c0-42 44-76 97-76c14 0 27 3 39 7z m-50 30c-11-4-23-7-36-7c-44 0-80 27-80 59c0 33 36 59 80 59c44 0 80-26 80-59c0-10-4-19-10-28c-2-3-3-5-2-8l8-25l-35 9c-1 0-1 0-2 0c-1 0-2 0-3 0z m-71 70c-8 0-14-6-14-15c0-8 6-14 14-14c9 0 15 6 15 14c0 9-6 15-15 15z m-2-15c0 2 1 3 2 3c2 0 3-1 3-3c0-2-5-2-5 0z m39 15c-8 0-15-6-15-15c0-8 7-14 15-14c8 0 15 6 15 14c0 9-7 15-15 15z m-2-15c0 2 1 3 2 3c1 0 2-1 2-3c0-2-4-2-4 0z m53 0c0 9-7 15-15 15c-8 0-15-6-15-15c0-8 7-14 15-14c8 0 15 6 15 14z m-17 0c0 2 1 3 2 3c1 0 2-1 2-3c0-2-4-2-4 0z m157-223c0 7-1 13-1 16c5 8 20 34 21 69c0 0 0 1 0 1c1 36-20 58-58 60l0 0c0 0-1 0-1 0l0 0c-38-2-59-24-58-60l0-1c1-35 16-61 21-69c0-3-1-9-1-16c-80-21-94-49-95-52c-1-1-1-2-1-3l0-50c0-5 4-9 8-9l252 0c5 0 9 4 9 9l0 50c0 1 0 2-1 3c-1 3-15 31-95 52z m79-97l-235 0l0 39c4 5 22 26 89 43c4 1 7 4 7 8c0 15 1 23 1 24c1 2 0 4-1 6c0 0-19 27-20 62l0 1c-1 27 13 42 41 43c0 0 0 0 1 0c28-1 42-16 41-43l0-1c-1-35-20-62-20-62c-1-2-2-4-2-6c0-1 2-9 2-24c0-4 3-7 6-8c68-17 86-38 90-43l0-39z"/>
<glyph unicode="&#64;" d="M460 412l-25 0c-3 26-25 46-52 46l-331 0c-29 0-52-23-52-52l0-193c0-24 17-45 41-51l0-51c0-2 1-4 3-6c3-3 7-5 12-5c4 0 8 1 11 4l31 22c8-7 19-11 31-11l236 0l80-57c3-3 7-4 11-4c5 0 9 2 12 5c2 1 3 4 3 6l0 51c24 6 41 27 41 51l0 193c0 29-23 52-52 52z m-402-293l0 51c0 4-4 8-8 8c-19 2-33 17-33 35l0 193c0 19 16 35 35 35l331 0c17 0 32-12 34-29l-288 0c-29 0-52-23-52-52l0-193c0-10 3-20 9-29z m437 48c0-18-14-33-33-35c-4 0-8-4-8-8l0-51l-82 58c-1 1-3 1-5 1l-238 0c-19 0-35 16-35 35l0 193c0 19 16 35 35 35l331 0c19 0 35-16 35-35l0-193z m-111 130c-21 0-37-17-37-37c0-20 16-37 37-37c20 0 37 17 37 37c0 20-17 37-37 37z m0-57c-11 0-20 9-20 20c0 11 9 20 20 20c11 0 20-9 20-20c0-11-9-20-20-20z m-89 57c-20 0-37-17-37-37c0-20 17-37 37-37c20 0 37 17 37 37c0 20-17 37-37 37z m0-57c-11 0-20 9-20 20c0 11 9 20 20 20c11 0 20-9 20-20c0-11-9-20-20-20z m-87 57c-20 0-37-17-37-37c0-20 17-37 37-37c20 0 37 17 37 37c0 20-17 37-37 37z m0-57c-11 0-20 9-20 20c0 11 9 20 20 20c11 0 20-9 20-20c0-11-9-20-20-20z"/>
<glyph unicode="&#91;" d="M219 360l-186 0c-18 0-33-14-33-33l0-108c0-14 10-27 23-31l0-27c0-2 1-4 3-6c2-2 6-3 9-3c3 0 7 1 9 3l44 31l131 0c18 0 33 15 33 33l0 108c0 19-15 33-33 33z m16-141c0-9-7-16-16-16l-134 0c-2 0-3 0-5-2l-40-28l0 22c0 4-4 8-8 8c-8 1-15 8-15 16l0 108c0 9 7 16 16 16l186 0c9 0 16-7 16-16z m-93 52c0-9-7-16-16-16c-9 0-16 7-16 16c0 9 7 16 16 16c9 0 16-7 16-16z m-41 0c0-9-7-16-16-16c-9 0-16 7-16 16c0 9 7 16 16 16c9 0 16-7 16-16z m65 16c-9 0-16-7-16-16c0-9 7-16 16-16c9 0 16 7 16 16c0 9-7 16-16 16z m313 73l-186 0c-18 0-33-14-33-33l0-108c0-18 15-33 33-33l131 0l44-31c2-2 6-3 9-3c3 0 7 1 9 3c2 2 3 4 3 6l0 27c13 4 23 17 23 31l0 108c0 19-15 33-33 33z m16-141c0-8-7-15-15-16c-4 0-8-4-8-8l0-22l-40 28c-2 2-3 2-5 2l-134 0c-9 0-16 7-16 16l0 108c0 9 7 16 16 16l186 0c9 0 16-7 16-16z m-93 52c0-9-7-16-16-16c-9 0-16 7-16 16c0 9 7 16 16 16c9 0 16-7 16-16z m41 0c0-9-7-16-16-16c-9 0-16 7-16 16c0 9 7 16 16 16c9 0 16-7 16-16z m-81 0c0-9-7-16-16-16c-9 0-16 7-16 16c0 9 7 16 16 16c9 0 16-7 16-16z"/>
<glyph unicode="&#93;" d="M493 216c13 17 19 36 19 56c0 64-67 116-150 116c-15 0-29-1-42-4c-36 26-82 41-132 41c-103 0-188-65-188-146c0-24 8-49 24-70l-23-77c-1-3 0-6 2-8c2-2 4-3 6-3c1 0 2 0 2 1l98 26c25-9 52-14 79-14c42 0 83 11 116 30c17-6 37-9 58-9c21 0 43 4 62 11l77-20c1-1 1-1 2-1c2 0 5 1 6 3c2 2 3 5 2 8z m-305-65c-26 0-52 5-76 14c-1 0-3 0-5 0l-85-23l19 66c1 3 1 6-1 8c-15 19-23 41-23 63c0 71 77 129 171 129c41 0 80-11 111-31c-52-18-88-58-88-105c0-42 29-79 72-99c-28-14-61-22-95-22z m238 32c-1 0-1 0-2 0c-1 0-2 0-3 0c-19-7-39-11-59-11c-74 0-134 45-134 100c0 55 60 99 134 99c73 0 133-44 133-99c0-17-6-34-18-49c-1-3-2-5-1-8l15-49z m-45 91c0-9-7-16-16-16c-9 0-16 7-16 16c0 9 7 16 16 16c9 0 16-7 16-16z m42 0c0-9-7-16-16-16c-9 0-17 7-17 16c0 9 8 16 17 16c9 0 16-7 16-16z m-83 0c0-9-7-16-16-16c-9 0-16 7-16 16c0 9 7 16 16 16c9 0 16-7 16-16z m-140 10c0-9-7-17-16-17c-9 0-16 8-16 17c0 9 7 16 16 16c9 0 16-7 16-16z m-41 0c0-9-7-17-16-17c-9 0-16 8-16 17c0 9 7 16 16 16c9 0 16-7 16-16z"/>
<glyph unicode="&#94;" d="M213 435l-137 0c-15 0-27-12-27-27l0-79c0-15 12-27 27-27l96 0l31-22c2-2 5-3 8-3c3 0 6 1 9 3c1 2 2 4 2 6l0 18c10 4 17 14 17 25l0 79c0 15-12 27-26 27z m9-106c0-5-4-9-9-10c-4 0-8-4-8-8l0-12l-26 19c-1 1-3 1-5 1l-98 0c-6 0-10 4-10 10l0 79c0 6 4 10 10 10l137 0c5 0 9-4 9-10z m-55 54c-7 0-14-6-14-14c0-7 7-14 14-14c8 0 14 7 14 14c0 8-6 14-14 14z m0-17c-1 0-3 2-3 3c0 2 2 3 3 3c2 0 3-1 3-3c0-1-1-3-3-3z m-48 17c-7 0-14-6-14-14c0-7 7-14 14-14c8 0 14 7 14 14c0 8-6 14-14 14z m0-17c-1 0-3 2-3 3c0 2 2 3 3 3c2 0 3-1 3-3c0-1-1-3-3-3z m318-19l-137 0c-15 0-27-12-27-26l0-80c0-11 7-21 17-25l0-18c0-2 1-4 2-6c3-2 6-3 9-3c3 0 6 1 8 3l32 22l96 0c14 0 26 12 26 27l0 80c0 14-12 26-26 26z m9-106c0-6-4-10-9-10l-99 0c-2 0-4 0-5-1l-26-19l0 12c0 4-4 8-8 8c-5 1-9 5-9 10l0 80c0 5 4 9 10 9l137 0c5 0 9-4 9-9z m-50 52c-8 0-14-6-14-14c0-8 6-14 14-14c8 0 14 6 14 14c0 8-6 14-14 14z m0-17c-2 0-3 1-3 3c0 2 1 3 3 3c2 0 3-1 3-3c0-2-1-3-3-3z m-48 17c-8 0-14-6-14-14c0-8 6-14 14-14c8 0 14 6 14 14c0 8-6 14-14 14z m0-17c-2 0-3 1-3 3c0 2 1 3 3 3c2 0 3-1 3-3c0-2-1-3-3-3z m126 208l-435 0c-21 0-38-17-38-38l0-279c-1-2-1-3-1-4c0-2 0-3 1-4l0-4c0-21 17-38 37-38c7-1 76-10 142-14c24-2 44-3 62-3l0-55l-72 0c-5 0-8-4-8-9c0-4 3-8 8-8l161 0c4 0 8 4 8 8c0 5-4 9-8 9l-72 0l0 55c96 1 207 16 216 17c20 0 37 17 37 38l0 291c0 21-17 38-38 38z m0-350c0 0-1 0-1 0c-1 0-122-17-223-17c-18 0-42 1-69 3c-68 5-140 14-141 14c0 0-1 0-1 0c-11 0-21 9-21 20l477 0c0-11-10-20-21-20z m21 37l-477 0l0 275c0 12 9 21 21 21l435 0c12 0 21-9 21-21z"/>
<glyph unicode="&#95;" d="M481 410l-450 0c-17 0-31-14-31-30c0-1 0-1 0-1l0-247c0-16 14-30 31-30l450 0c17 0 31 14 31 30l0 248c0 16-14 30-31 30z m-450-17l450 0c6 0 11-4 13-9l-236-128l-240 128c2 5 7 9 13 9z m-14-261l0 233l223-119l-211-127c-7 1-12 7-12 13z m241 104l193-117l-389 0z m225-117l-208 127l220 119l0-233c0-6-5-12-12-13z"/>
<glyph unicode="&#96;" d="M507 343l-112 57l0 11c0 2-1 5-3 6l-63 62c-1 2-4 3-6 3l-195 0c-14 0-25-12-25-25l0-64l-98-50c-3-1-5-4-5-8l0-39c0 0 0 0 0 0l0-235c0-17 14-31 31-31l450 0c17 0 31 14 31 31l0 274c0 4-2 7-5 8z m-12-13l0-28l-100-55l0 134z m-367 134l192 0l58-57l0-169l-120-66l-138 74l0 142c0 0 0 0 0 0l0 69c0 4 4 7 8 7z m-25-90l0-119l-86 46l0 29z m392-313c0-7-6-13-14-13l-450 0c-8 0-14 6-14 13l0 221l237-128c2-1 5-1 8 0l127 70c1 0 3 1 4 2l102 56z"/>
<glyph unicode="&#123;" d="M388 410l0-51c0-4 4-8 9-8c5 0 8 4 8 8l0 78c0 49-25 75-74 75l-226 0c-49 0-75-26-75-75l0-428c0-5 4-9 9-9c5 0 8 4 8 9l0 401z m-283 85l226 0c39 0 57-18 57-58l0-10l-341 0l0 10c0 40 19 58 58 58z m292-329c-5 0-9-4-9-9l0-147c0-5 4-9 9-9c5 0 8 4 8 9l0 147c0 5-3 9-8 9z m-221 279l84 0c5 0 8 4 8 9c0 9-7 16-16 16l-68 0c-9 0-17-7-17-16c0-5 4-9 9-9z m286-100l-234 0c-11 0-20-9-20-20l0-10c0 0 0 0 0 0l0-118c0-11 9-20 20-20l234 0c11 0 20 9 20 20l0 128c0 11-9 20-20 20z m-234-17l234 0c1 0 3-2 3-3l0-4l-119-62l-121 62l0 4c0 1 2 3 3 3z m237-131c0-2-2-3-3-3l-234 0c-1 0-3 1-3 3l0 104l117-60c2-1 5-1 8 0l115 61z"/>
<glyph unicode="&#124;" d="M388 410l0-51c0-4 3-8 8-8c5 0 9 4 9 8l0 78c0 49-26 75-75 75l-226 0c-49 0-74-26-74-75l0-428c0-5 3-9 8-9c5 0 9 4 9 9l0 401z m-284 85l226 0c39 0 58-18 58-58l0-10l-341 0l0 10c0 40 18 58 57 58z m292-329c-5 0-8-4-8-9l0-147c0-5 3-9 8-9c5 0 9 4 9 9l0 147c0 5-4 9-9 9z m-221 279l84 0c5 0 9 4 9 9c0 9-8 16-17 16l-68 0c-9 0-16-7-16-16c0-5 3-9 8-9z m275-98l-200 0c-18 0-33-15-33-33l0-107c0-18 15-33 33-33l4 0l20-29c1 0 1-1 1-1c3-2 6-4 10-4c3 0 7 2 9 4c1 0 1 1 1 1l21 29l134 0c18 0 33 15 33 33l0 107c0 18-15 33-33 33z m15-140c0-9-7-16-15-16l-139 0c-2 0-5-1-7-3l-19-28l-20 28c-1 2-4 3-7 3l-8 0c-9 0-16 7-16 16l0 107c0 8 7 15 16 15l200 0c8 0 15-7 15-15l0-107z m-19 97l-194 0c-5 0-9-4-9-9c0-4 4-8 9-8l194 0c4 0 8 4 8 8c0 5-3 9-8 9z m0-72l-194 0c-5 0-9-4-9-9c0-5 4-8 9-8l194 0c4 0 8 3 8 8c0 5-3 9-8 9z m0 36l-194 0c-5 0-9-4-9-8c0-5 4-9 9-9l194 0c4 0 8 4 8 9c0 4-3 8-8 8z"/>
<glyph unicode="&#125;" d="M450 376c0 1 0 2-1 3c0 1 0 1 0 1c0 1-1 1-1 2c0 0 0 0 0 0l-133 128c0 0-1 0-1 1c-1 0-1 0-2 0c-1 1-2 1-3 1l-211 0c-20 0-36-16-36-36l0-440c0-20 16-36 36-36l316 0c20 0 36 16 36 36z m-132 107l102-98l-83 0c-11 0-19 8-19 19z m96-466l-316 0c-11 0-19 9-19 19l0 440c0 10 8 19 19 19l203 0l0-91c0-20 16-36 36-36l96 0l0-332c0-10-9-19-19-19z m-18 291l-280 0c-4 0-8-4-8-8c0-5 4-9 8-9l280 0c5 0 9 4 9 9c0 4-4 8-9 8z m0-54l-280 0c-4 0-8-4-8-8c0-5 4-9 8-9l280 0c5 0 9 4 9 9c0 4-4 8-9 8z m-128-54l-152 0c-4 0-8-4-8-9c0-4 4-8 8-8l152 0c4 0 8 4 8 8c0 5-4 9-8 9z"/>
<glyph unicode="&#126;" d="M399 187l0 202c0 2 0 3-1 4c0 0 0 0 0 0c0 1-1 2-1 3c0 0 0 0-1 0l-118 114c-1 0-1 0-2 1c0 0 0 0-1 0c-1 1-2 1-3 1l-189 0c-19 0-33-15-33-33l0-394c0-18 14-33 33-33l198 0c16-31 48-52 85-52c53 0 96 43 96 96c0 42-26 77-63 91z m-119 296l89-85l-72 0c-9 0-17 7-17 16z m-197-414c-9 0-16 7-16 16l0 394c0 9 7 16 16 16l180 0l0-81c0-18 15-33 34-33l85 0l0-190c-5 1-11 2-16 2c-53 0-96-43-96-97c0-9 1-18 4-27z m283-52c-32 0-59 19-72 46c0 1 0 1 0 1c-5 10-7 21-7 32c0 44 35 80 79 80c44 0 79-36 79-80c0-43-35-79-79-79z m-267 295l241 0c4 0 8 4 8 9c0 5-4 9-8 9l-241 0c-4 0-8-4-8-9c0-5 4-9 8-9z m0-48l241 0c4 0 8 4 8 8c0 5-4 9-8 9l-241 0c-4 0-8-4-8-9c0-4 4-8 8-8z m125-31l-125 0c-4 0-8-4-8-9c0-5 4-9 8-9l125 0c5 0 9 4 9 9c0 5-4 9-9 9z m199-128l-49 0l0 49c0 4-3 8-8 8c-5 0-9-4-9-8l0-49l-48 0c-5 0-9-4-9-9c0-4 4-8 9-8l48 0l0-49c0-4 4-8 9-8c5 0 8 4 8 8l0 49l49 0c5 0 9 4 9 8c0 5-4 9-9 9z"/>
<glyph unicode="&#92;" d="M399 187l0 202c0 2 0 3-1 4c0 0 0 0 0 0c0 1-1 2-1 3c0 0 0 0-1 0l-118 114c-1 0-1 0-2 1c0 0 0 0-1 0c-1 1-2 1-3 1l-189 0c-19 0-33-15-33-33l0-394c0-18 14-33 33-33l198 0c16-31 48-52 85-52c53 0 96 43 96 96c0 42-26 77-63 91z m-119 296l89-85l-72 0c-9 0-17 7-17 16z m-197-414c-9 0-16 7-16 16l0 394c0 9 7 16 16 16l180 0l0-81c0-18 15-33 34-33l85 0l0-190c-5 1-11 2-16 2c-53 0-96-43-96-97c0-9 1-18 4-27z m283-52c-32 0-59 19-72 46c0 1 0 1 0 1c-5 10-7 21-7 32c0 44 35 80 79 80c44 0 79-36 79-80c0-43-35-79-79-79z m-267 295l241 0c4 0 8 4 8 9c0 5-4 9-8 9l-241 0c-4 0-8-4-8-9c0-5 4-9 8-9z m0-48l241 0c4 0 8 4 8 8c0 5-4 9-8 9l-241 0c-4 0-8-4-8-9c0-4 4-8 8-8z m125-31l-125 0c-4 0-8-4-8-9c0-5 4-9 8-9l125 0c5 0 9 4 9 9c0 5-4 9-9 9z m199-128l-114 0c-5 0-9-4-9-9c0-4 4-8 9-8l114 0c5 0 9 4 9 8c0 5-4 9-9 9z"/>
<glyph unicode="&#57344;" d="M399 187l0 202c0 2 0 3-1 4c0 0 0 0 0 0c0 1-1 2-1 3c0 0 0 0-1 0l-118 114c-1 0-1 0-2 1c0 0 0 0-1 0c-1 1-2 1-3 1l-189 0c-19 0-33-15-33-33l0-394c0-18 14-33 33-33l198 0c16-31 48-52 85-52c53 0 96 43 96 96c0 42-26 77-63 91z m-119 296l89-85l-72 0c-9 0-17 7-17 16z m-197-414c-9 0-16 7-16 16l0 394c0 9 7 16 16 16l180 0l0-81c0-18 15-33 34-33l85 0l0-190c-5 1-11 2-16 2c-53 0-96-43-96-97c0-9 1-18 4-27z m283-52c-32 0-59 19-72 46c0 1 0 1 0 1c-5 10-7 21-7 32c0 44 35 80 79 80c44 0 79-36 79-80c0-43-35-79-79-79z m-267 295l241 0c4 0 8 4 8 9c0 5-4 9-8 9l-241 0c-4 0-8-4-8-9c0-5 4-9 8-9z m0-48l241 0c4 0 8 4 8 8c0 5-4 9-8 9l-241 0c-4 0-8-4-8-9c0-4 4-8 8-8z m125-31l-125 0c-4 0-8-4-8-9c0-5 4-9 8-9l125 0c5 0 9 4 9 9c0 5-4 9-9 9z m154-137l34 35c4 3 4 9 0 12c-3 3-8 3-12 0l-34-34l-34 34c-4 3-9 3-12 0c-4-3-4-9 0-12l34-35l-35-34c-3-3-3-9 0-12c2-2 4-3 7-3c2 0 4 1 6 3l34 34l34-34c2-2 4-3 6-3c3 0 5 1 6 3c4 3 4 9 0 12z"/>
<glyph unicode="&#57345;" d="M399 187l0 202c0 2 0 3-1 4c0 0 0 0 0 0c0 1-1 2-1 3c0 0 0 0-1 0l-118 114c-1 0-1 0-2 1c0 0 0 0-1 0c-1 1-2 1-3 1l-189 0c-19 0-33-15-33-33l0-394c0-18 14-33 33-33l198 0c16-31 48-52 85-52c53 0 96 43 96 96c0 42-26 77-63 91z m-119 296l89-85l-72 0c-9 0-17 7-17 16z m-197-414c-9 0-16 7-16 16l0 394c0 9 7 16 16 16l180 0l0-81c0-18 15-33 34-33l85 0l0-190c-5 1-11 2-16 2c-53 0-96-43-96-97c0-9 1-18 4-27z m283-52c-32 0-59 19-72 46c0 1 0 1 0 1c-5 10-7 21-7 32c0 44 35 80 79 80c44 0 79-36 79-80c0-43-35-79-79-79z m-267 295l241 0c4 0 8 4 8 9c0 5-4 9-8 9l-241 0c-4 0-8-4-8-9c0-5 4-9 8-9z m0-48l241 0c4 0 8 4 8 8c0 5-4 9-8 9l-241 0c-4 0-8-4-8-9c0-4 4-8 8-8z m125-31l-125 0c-4 0-8-4-8-9c0-5 4-9 8-9l125 0c5 0 9 4 9 9c0 5-4 9-9 9z m176-140l-25-26l0 86c0 5-4 9-9 9c-5 0-9-4-9-9l0-86l-25 26c-3 3-9 3-12 0c-3-4-3-9 0-12l40-40c2-2 4-3 6-3c0 0 0 0 0 0c0 0 0 0 0 0c2 0 5 1 6 3l40 40c3 3 3 8 0 12c-4 3-9 3-12 0z"/>
<glyph unicode="&#57346;" d="M399 187l0 202c0 2 0 3-1 4c0 0 0 0 0 0c0 1-1 2-1 3c0 0 0 0-1 0l-118 114c-1 0-1 0-2 1c0 0 0 0-1 0c-1 1-2 1-3 1l-189 0c-19 0-33-15-33-33l0-394c0-18 14-33 33-33l198 0c16-31 48-52 85-52c53 0 96 43 96 96c0 42-26 77-63 91z m-119 296l89-85l-72 0c-9 0-17 7-17 16z m-197-414c-9 0-16 7-16 16l0 394c0 9 7 16 16 16l180 0l0-81c0-18 15-33 34-33l85 0l0-190c-5 1-11 2-16 2c-53 0-96-43-96-97c0-9 1-18 4-27z m283-52c-32 0-59 19-72 46c0 1 0 1 0 1c-5 10-7 21-7 32c0 44 35 80 79 80c44 0 79-36 79-80c0-43-35-79-79-79z m-267 295l241 0c4 0 8 4 8 9c0 5-4 9-8 9l-241 0c-4 0-8-4-8-9c0-5 4-9 8-9z m0-48l241 0c4 0 8 4 8 8c0 5-4 9-8 9l-241 0c-4 0-8-4-8-9c0-4 4-8 8-8z m125-31l-125 0c-4 0-8-4-8-9c0-5 4-9 8-9l125 0c5 0 9 4 9 9c0 5-4 9-9 9z m148-81c-2 1-4 2-6 2c0 0 0 0 0 0c0 0 0 0 0 0c-2 0-5-1-6-3l-40-39c-3-3-3-9 0-12c3-4 9-4 12 0l25 25l0-86c0-4 4-8 9-8c5 0 8 4 8 8l0 86l26-25c1-2 4-3 6-3c2 0 4 1 6 3c3 3 3 8 0 12z"/>
<glyph unicode="&#57347;" d="M399 187l0 202c0 2 0 3-1 4c0 0 0 0 0 0c0 1-1 2-1 3c0 0 0 0-1 0l-118 114c-1 0-1 0-2 1c0 0 0 0-1 0c-1 1-2 1-3 1l-189 0c-19 0-33-15-33-33l0-394c0-18 14-33 33-33l198 0c16-31 48-52 85-52c53 0 96 43 96 96c0 42-26 77-63 91z m-119 296l89-85l-72 0c-9 0-17 7-17 16l0 69z m-197-414c-9 0-16 7-16 16l0 394c0 9 7 16 16 16l180 0l0-81c0-18 15-33 34-33l85 0l0-190c-5 1-11 2-16 2c-53 0-97-43-97-97c0-9 2-18 5-27z m283-52c-32 0-59 19-72 46c0 1 0 1 0 1c-5 10-7 21-7 32c0 44 35 80 79 80c44 0 79-36 79-80c0-43-35-79-79-79z m-267 295l241 0c4 0 8 4 8 9c0 5-4 9-8 9l-241 0c-4 0-8-4-8-9c0-5 4-9 8-9z m0-48l241 0c4 0 8 4 8 8c0 5-4 9-8 9l-241 0c-4 0-8-4-8-9c0-4 4-8 8-8z m125-31l-125 0c-4 0-8-4-8-9c0-5 4-9 8-9l125 0c5 0 9 4 9 9c0 5-4 9-9 9z m201-117c-1 3-4 5-7 5l-31 3l-13 29c-1 4-5 6-8 6c-3 0-6-2-8-6l-13-29l-31-3c-3 0-6-2-7-5c-1-3 0-7 2-9l23-23l-6-29c0-3 1-7 3-9c2-1 4-1 6-1c1 0 2 0 3 0l28 15l28-15c3-1 6-1 9 1c2 2 4 6 3 9l-6 29l23 23c2 2 3 6 2 9z m-40-23c-2-2-3-5-3-8l4-16l-16 8c-1 0-3 1-4 1c-1 0-3-1-4-1l-15-8l3 16c0 3 0 6-2 8l-14 13l18 1c3 1 5 3 7 5l7 17l7-17c2-2 4-4 8-5l17-1z"/>
<glyph unicode="&#57348;" d="M399 187l0 202c0 2 0 3-1 4c0 0 0 0 0 0c0 1-1 2-1 3c0 0 0 0-1 0l-118 113c0 0 0 0 0 1l0 0c-1 0-1 0-1 0c-1 1-1 1-2 1c-1 1-2 1-3 1l-189 0c-19 0-33-15-33-33l0-394c0-18 14-33 33-33l198 0c1-4 3-7 6-10c0-1 1-2 1-3c1 0 1 0 1 0c5-8 12-14 19-20c1 0 1 0 1 0c1-1 2-2 3-2c15-11 34-17 54-17c53 0 96 43 96 96c0 42-26 77-63 91z m-119 296l89-85l-72 0c-9 0-17 7-17 16z m-197-414c-9 0-16 7-16 16l0 394c0 9 7 16 16 16l180 0l0-81c0-18 15-33 34-33l85 0l0-190c-5 1-11 2-16 2c-53 0-97-43-97-97c0-9 2-18 5-27z m223-24l42 41l8-8l-42-42c-3 3-5 6-8 9z m60-28c-13 0-26 3-37 9l45 46c4 3 4 9 0 12l-20 20c-3 4-9 4-12 0l-46-45c-1 1-1 3-2 4c0 1 0 1 0 1c-5 10-7 21-7 32c0 44 35 80 79 80c44 0 79-36 79-80c0-43-35-79-79-79z m-267 295l241 0c4 0 8 4 8 9c0 5-4 9-8 9l-241 0c-4 0-8-4-8-9c0-5 4-9 8-9z m0-48l241 0c4 0 8 4 8 8c0 5-4 9-8 9l-241 0c-4 0-8-4-8-9c0-4 4-8 8-8z m125-31l-125 0c-4 0-8-4-8-9c0-5 4-9 8-9l125 0c5 0 9 4 9 9c0 5-4 9-9 9z m168-101l-29-8c-3-1-5-3-6-6c0-3 0-6 3-8l20-21c2-2 4-2 6-2c1 0 2 0 2 0c3 1 6 3 6 6l9 29c0 3 0 6-3 8c-2 2-5 3-8 2z"/>
<glyph unicode="&#57349;" d="M469 457l-174 0l0 27c0 15-13 28-28 28l-224 0c-16 0-28-13-28-28l0-311c0-16 12-28 28-28l74 0l0-117c0-15 12-28 28-28l224 0c15 0 28 13 28 28l0 62l72 0c16 0 28 12 28 28l0 311c0 16-12 28-28 28z m-426-295c-6 0-11 5-11 11l0 311c0 6 5 11 11 11l224 0c6 0 11-5 11-11l0-27l-33 0c-15 0-28-12-28-28l0-62l-72 0c-16 0-28-12-28-28l0-177z m326-145l-224 0c-6 0-11 5-11 11l0 311c0 6 5 11 11 11l141 0l0-62c0-15 12-28 28-28l65 0l0-160c0 0 0-1 0-2c0 0 0-1 0-1l0-69c0-6-4-11-10-11z m-2 260l-53 0c-6 0-11 5-11 11l0 51z m113-159c0-6-5-11-11-11l-72 0l0 162c0 1-1 2-1 3c0 0 0 0 0 0c-1 1-1 2-2 3c0 0 0 0 0 0l-94 90c0 0 0 0 0 0l0 0c0 0-1 1-1 1c-1 0-1 1-2 1c-1 0-2 0-3 0l-60 0l0 62c0 6 5 11 11 11l224 0c6 0 11-5 11-11l0-311z m-122 100l-201 0c-5 0-9-4-9-8c0-5 4-9 9-9l201 0c4 0 8 4 8 9c0 4-4 8-8 8z m0-40l-201 0c-5 0-9-3-9-8c0-5 4-9 9-9l201 0c4 0 8 4 8 9c0 5-4 8-8 8z m-97-39l-104 0c-5 0-9-4-9-9c0-4 4-8 9-8l104 0c5 0 9 4 9 8c0 5-4 9-9 9z"/>
<glyph unicode="&#57350;" d="M450 376c0 3-1 5-2 6c0 0 0 0-1 0l-132 127c0 0 0 0 0 1l0 0c0 0-1 0-1 0c-1 1-1 1-2 1c-1 1-2 1-3 1l-211 0c-20 0-36-16-36-36l0-440c0-20 16-36 36-36l316 0c20 0 36 16 36 36l0 340c0 0 0 0 0 0z m-132 107l102-98l-83 0c-11 0-19 8-19 19z m96-466l-316 0c-11 0-19 9-19 19l0 440c0 10 8 19 19 19l203 0l0-91c0-20 16-36 36-36l96 0l0-332c0-10-8-19-19-19z m-15 321l-286 0c-2 0-5-1-6-3c-2-2-3-4-3-6l0-257c0-2 1-4 1-6c0-2 1-3 1-5c2-6 7-11 13-15c5-3 10-4 15-4l244 0c5 0 9 1 13 3c7 4 13 10 15 17c1 2 1 3 1 5c0 1 1 3 1 5l0 257c0 5-4 9-9 9z m-8-17l0-191l-21 20c-3 4-15 18-29 18c0 0-1 0-1 0c-9-1-17-7-23-12l-8 7c-3 4-17 20-33 20c0 0-1 0-1 0c-14 0-27-14-32-19l-20 20c-3 4-21 25-40 24c-19-1-39-24-41-26l-21-21l0 160z m-1-251c0-1 0-2 0-2c-1-4-3-6-6-8c-2-1-4-1-6-1l-244 0c-2 0-4 0-6 2c-3 1-5 4-6 6c0 1 0 1 0 2c-1 1-1 2-1 3l0 65l34 33c6 8 20 20 29 21c9 0 21-12 26-18c0-1 0-1 1-1l26-26c1-2 4-3 6-3c2 0 4 1 6 3l5 5c5 6 16 15 22 15c6 0 15-8 20-14c0 0 0 0 1 0l14-14c1-2 4-3 6-3c2 0 4 1 6 3c6 7 14 13 18 13c4 0 12-7 16-12c0 0 0 0 0 0l34-33l0-34c0-1 0-2-1-2z"/>
<glyph unicode="&#57351;" d="M449 379c0 0 0 1 0 1c0 1-1 1-1 2c0 0 0 0 0 0l-133 127c0 0 0 0 0 1l0 0c0 0-1 0-1 0c-1 1-1 1-2 1c-1 1-2 1-3 1l-211 0c-20 0-36-16-36-36l0-440c0-20 16-36 36-36l316 0c20 0 36 16 36 36l0 340c0 1 0 2-1 3z m-131 104l102-98l-83 0c-11 0-19 8-19 19z m96-466l-316 0c-11 0-19 9-19 19l0 440c0 10 8 19 19 19l203 0l0-91c0-20 16-36 36-36l96 0l0-332c0-10-8-19-19-19z m-136 241l-49 0c-4 0-8-4-8-8l0-176c0-5 4-9 8-9l49 0c5 0 9 4 9 9l0 175c0 0 0 1 0 1c0 4-4 8-9 8z m-8-176l-32 0l0 159l32 0z m-79 128l-49 0c-5 0-8-3-8-8l0-128c0-5 3-9 8-9l49 0c5 0 9 4 9 9l0 127c0 0 0 1 0 1c0 5-4 8-9 8z m-8-128l-32 0l0 111l32 0z m185 219l-49 0c-5 0-9-4-9-8l0-219c0-5 4-9 9-9l49 0c5 0 9 4 9 9l0 217c0 0 0 1 0 2c0 4-4 8-9 8z m-8-219l-33 0l0 202l33 0z"/>
<glyph unicode="&#57352;" d="M430 512c-4 0-8-4-8-9l0-478l-161 115c-3 2-7 2-10 0l-161-115l0 478c0 5-4 9-8 9c-5 0-9-4-9-9l0-494c0-4 2-7 5-8c1-1 2-1 4-1c1 0 3 1 4 2l170 120l170-120c2-2 6-3 8-1c3 1 5 4 5 8l0 494c0 5-4 9-9 9z m-237-232l-12-70c0-3 1-6 4-8c2-2 6-2 9-1l62 33l62-33c1 0 3-1 4-1c2 0 4 1 5 2c3 2 4 5 4 8l-12 70l50 49c2 2 3 5 2 8c-1 4-4 6-7 6l-69 10l-31 63c-3 6-13 6-16 0l-31-63l-69-10c-3 0-6-2-7-6c-1-3 0-6 2-8z m31 57c3 1 5 2 7 5l25 51l25-51c2-3 4-4 7-5l57-8l-41-40c-2-2-3-5-3-8l10-56l-51 26c-1 1-3 1-4 1c-1 0-3 0-4-1l-51-26l10 56c0 3-1 6-3 8l-41 40z"/>
<glyph unicode="&#57353;" d="M388 502c0 5-3 9-8 9c-5 0-9-4-9-9l0-483l-56 41l0 143c0 0 0 0 1 0c2 0 5 1 7 2c5 3 7 8 6 13l-10 60l43 42c3 3 5 9 3 14c-1 4-6 8-11 9l-39 5l0 154c0 5-4 9-9 9c-5 0-9-4-9-9l0-151l-2 0l-27 54c-2 5-7 8-12 8c-5 0-10-3-12-8l-27-54l-5 0l0 151c0 5-3 9-8 9c-5 0-9-4-9-9l0-154l-38-5c-4-1-9-5-10-9c-2-5 0-10 3-14l43-42l-10-60c-1-5 1-10 6-13c2-1 4-2 6-2l0-145l-54-39l0 484c0 5-4 9-9 9c-5 0-8-4-8-9l0-488c0-6 3-11 7-13c3-1 5-2 7-2c3 0 6 1 9 3l109 77l109-77c5-3 11-4 15-1c5 2 8 7 8 13z m-220-175l56 8c3 0 5 2 7 5l25 51l25-51c2-3 4-5 7-5l56-8l-41-40c-2-2-3-5-2-8l10-56l-1 0c0 0-1 1-1 1l-49 26c-3 1-5 1-8 0l-51-27l10 56c1 3 0 6-2 8z m83-229l-39-28l0 139l44 23l41-21l0-139l-36 26c-3 2-7 2-10 0z"/>
<glyph unicode="&#57354;" d="M503 458l-79 0c-4 21-23 38-46 38l-256 0c-23 0-42-17-46-38l-8 0c-37 0-68-31-68-69l0-365c0-4 4-8 9-8c4 0 8 4 8 8l0 365c0 29 23 52 51 52l7 0l0-325c0-3 2-6 5-8c1 0 2-1 4-1c1 0 3 1 5 2l120 85l120-85c2-2 6-2 8-1c3 2 5 5 5 8l0 325l161 0c5 0 9 3 9 8c0 5-4 9-9 9z m-169 0c-5 0-9-4-9-9l0-317l-111 80c-2 1-4 1-5 1c-2 0-4 0-5-1l-112-80l0 317c0 17 14 30 30 30l256 0c13 0 25-9 28-21z m-47-95l-46 7l-20 41c-3 5-7 7-12 7c-6 0-10-2-13-7l-20-41l-46-7c-5-1-9-4-11-9c-1-5 0-11 4-14l33-32l-8-46c-1-5 1-10 5-13c3-2 5-3 8-3c2 0 5 1 7 2l41 21l41-21c4-3 10-2 14 1c4 3 6 8 5 13l-8 46l34 32c3 3 5 9 3 14c-2 5-6 8-11 9z m-41-46c-2-2-3-5-2-8l7-43l-38 20c-3 2-6 2-8 0l-39-20l7 43c1 3 0 6-2 8l-31 30l43 6c3 1 5 2 6 5l20 39l19-39c1-3 4-4 6-5l44-6z"/>
<glyph unicode="&#57355;" d="M447 485l-51 0l-19 21c0 1-1 1-1 1c0 0-1 0-1 1c-1 0-1 0-1 1c-1 0-1 0-2 0c0 0-1 0-2 0c0 0 0 0 0 0l-233 0c0 0 0 0 0 0c0 0-1 0-1 0c-2 0-4-1-5-3l-19-21l-47 0c-36 0-65-29-65-64l0-407c0-5 4-8 9-8c4 0 8 3 8 8l0 407c0 26 21 47 48 47l51 0c0 0 0 0 0 0c0 0 0 0 0 0l13 0l0-278c0-3 2-6 4-7c3-2 7-2 9 0l112 80l111-80c2-1 3-1 5-1c2 0 3 0 4 1c3 1 5 4 5 7l0 149c0 0 0 0 0 1l0 128l13 0c0 0 0 0 0 0c0 0 0 0 0 0l55 0c27 0 48-21 48-47l0-410c0-5 4-8 8-8c5 0 9 3 9 8l0 410c0 35-29 64-65 64z m-85-146l0-132l-103 73c-2 1-3 2-5 2c-2 0-4-1-5-2l-103-73l0 269c0 0 0 0 0 1c0 0 0 0 0 1l0 14l216 0l0-15c0 0 0 0 0 0c0 0 0 0 0-1l0-136c0 0 0 0 0-1z m-35 83l-42 6l-19 38c-2 5-7 7-12 7c-6 0-10-2-13-7l-18-38l-43-6c-5-1-9-5-11-10c-1-5 0-10 4-14l30-30l-7-42c-1-5 1-10 6-13c2-2 5-3 8-3c2 0 4 1 6 2l38 20l38-20c4-2 10-2 14 1c4 3 6 8 5 13l-7 42l31 30c4 4 5 9 3 14c-1 5-6 9-11 10z m-38-44c-2-2-3-5-2-8l6-40l-35 19c-3 1-6 1-8 0l-36-19l7 40c0 3-1 6-3 8l-28 28l39 6c3 0 6 2 7 4l18 36l18-36c1-2 3-4 6-4l40-6z"/>
<glyph unicode="&#57356;" d="M510 327l-15 14l0 83c0 35-28 63-62 63l-83 0l-15 15c-1 1-3 2-6 2l-189 0c-1 0-3 0-4-1l-29-16l-44 0c-35 0-63-28-63-63l0-405c0-5 4-8 9-8c4 0 8 3 8 8l0 405c0 25 21 46 46 46l91 0l324-325l0-129c0-4 4-8 9-8c5 0 8 4 8 8l0 75l16 38c1 1 1 2 1 3l0 189c0 2-1 4-2 6z m-77 143c25 0 45-21 45-46l0-66l-111 112z m-107 17l11-11c1-3 3-5 5-6l153-153l0-166c0 1 0 1 0 1c0 0-1 1-1 1c0 1-1 1-1 2l-330 330c-1 1-3 2-6 2l-15 0z m-7-142l21-7l7-21c1-4 4-7 9-8c0 0 1 0 1 0c4 0 8 2 10 5l13 18l22-1c5 1 8 3 10 7c2 4 2 8-1 12l-13 17l7 21c1 4 0 9-3 12c-3 3-8 4-12 3l-21-7l-17 13c-4 2-8 3-12 1c-4-2-7-6-7-10l1-22l-18-13c-4-3-6-7-5-11c1-5 4-8 8-9z m28 21c3 2 4 5 4 7l0 15l12-9c2-1 5-2 8-1l14 5l-5-14c-1-3 0-6 1-8l9-12l-15 0c-2 0-5-1-7-4l-9-12l-4 14c-1 3-3 5-6 6l-14 4z m-286-177l207 0c4 0 8 4 8 9c0 4-4 8-8 8l-207 0c-4 0-8-4-8-8c0-5 4-9 8-9z m368-30l-368 0c-4 0-8-3-8-8c0-5 4-9 8-9l368 0c5 0 9 4 9 9c0 5-4 8-9 8z m0-46l-368 0c-4 0-8-4-8-9c0-4 4-8 8-8l368 0c5 0 9 4 9 8c0 5-4 9-9 9z"/>
<glyph unicode="&#57357;" d="M394 258c0 134-127 247-132 252c-2 2-5 2-8 2c-3-1-5-3-6-5c-21-51-48-86-72-117c-31-40-58-75-58-132c0-74 57-135 131-138c0 0 4 0 7 0c-7-44-24-94-68-103c-4-1-7-6-6-10c1-4 4-7 8-7c1 0 1 0 2 0c43 10 71 51 82 121c68 9 120 67 120 137z m-119-120c1 8 1 16 2 24c68 19 80 118 81 122c0 5-3 9-8 10c-4 0-9-3-9-8c0-1-11-86-63-106c1 38 1 76 1 115c32 24 35 86 36 88c0 5-4 9-9 9c-5 1-8-3-9-8c0-13-5-45-19-65c-1 42-3 85-5 128c0 5-4 9-9 8c-4 0-8-4-8-8c3-54 5-107 6-159c-18 19-24 59-25 75c0 5-4 8-9 8c-5 0-8-4-8-9c0-3 4-74 42-96c0-25 0-51-1-76c-73 18-79 115-79 119c0 5-5 8-9 8c-5 0-8-4-8-9c0-1 6-117 95-135c0-12-1-24-2-36c-4 0-8 0-8 0c-65 3-115 56-115 121c0 51 24 82 55 122c23 29 48 62 69 109c29-28 118-124 118-231c0-60-44-110-102-120z"/>
<glyph unicode="&#57358;" d="M462 322c-2 3-4 4-7 5c-2 0-5-1-7-3c-27-28-53-43-76-57c-31-19-58-35-73-73c-10-25-9-52 2-76c10-24 30-43 54-53c1 0 3 0 4-1c-18-27-46-51-73-46c-5 0-9-3-10-8c-1-4 2-9 7-9c3-1 6-1 9-1c34 0 65 28 84 60c5-1 10-1 16-1c41 0 77 24 92 63c35 89-20 196-22 200z m6-194c-12-32-42-52-76-52c-5 0-10 0-15 1c0 0-1 1-1 1c-2 1-4 1-6 1c-3 0-6 1-8 2c-21 8-37 24-46 44c-9 20-9 42-1 63c13 33 36 47 66 64c21 13 45 28 70 52c13-29 43-110 17-176z m-352 160c-18 0-35-5-50-14c-1 0-2-1-3-2c-10 31-11 68 9 87c4 3 4 9 1 12c-4 3-9 4-12 0c-28-25-26-72-12-109c-34-31-43-82-19-123c48-83 166-107 171-108c0 0 1 0 1 0c2 0 4 1 6 2c2 2 3 5 3 8c-5 38-1 68 2 95c5 36 9 67-11 102c-18 31-51 50-86 50z m80-150c-3-25-7-53-4-87c-30 8-112 35-147 96c-20 34-13 76 15 102c1 0 2 0 3 0c3 2 4 4 5 6c2 2 4 3 7 5c12 7 26 11 41 11c29 0 56-16 71-41c18-31 14-58 9-92z m168 275c0 1 0 3 0 4c32-6 64-25 70-52c1-4 5-7 9-7c0 0 1 0 1 1c5 1 8 5 7 10c-9 37-51 60-89 66c-5 18-14 35-27 48c-19 19-44 29-70 29l0 0c0 0 0 0 0 0c-95 0-175-90-179-94c-1-2-2-5-1-7c0-3 2-5 5-6c35-15 59-34 80-50c29-22 54-42 95-42c55 0 99 45 99 100z m-99-83c-35 0-57 17-84 38c-20 16-42 33-74 48c23 22 87 79 158 79c22 0 43-9 58-24c12-12 19-26 22-41c0-1 0-1 0-1c0-2 0-4 1-6c1-3 1-7 1-10c0-46-37-83-82-83z"/>
<glyph unicode="&#57359;" d="M372 318c4 3 7 7 7 12l20 100c1 8-2 15-8 19c-7 5-15 5-21 0l-23-15l-37 54c-6 8-19 15-30 14l-74-6c-3 0-5-1-6-3l-82-117c-13-22-6-52 15-66c8-5 17-7 25-7c16 0 32 8 42 19c8 10 43 61 57 83l15-22l-21-14c-1 0-1-1-1-1c-7-4-9-12-7-19c1-7 7-13 14-14l101-20c4-1 9 0 14 3z m-185 15c-10-12-30-18-44-9c-14 10-18 29-10 43l75 108l39-55c-19-29-52-78-60-87z m73 19c0 1-1 1-1 1c0 1 0 1 1 1c0 0 0 0 0 1l29 19c2 1 3 3 4 6c0 2 0 4-2 6l-66 94l57 5c4 0 11-3 13-7l43-61c2-4 7-5 11-2l31 20c0 1 1 0 1 0c1 0 1-1 1-1l-19-101c0 0-1 0-1-1c0 0-1 0-1 0l-100 20c-1 0-1 0-1 0z m251-197l-59 129c-13 23-42 32-65 21c-24-12-30-42-23-63c4-13 31-68 42-92l-26-2l-1 26c0 0-1 1-1 1c0 8-5 14-13 16c-7 2-14 0-19-6l-68-77c-6-7-6-19 2-26l77-67c3-3 8-5 12-5c3 0 6 1 8 2c7 3 11 11 11 18l-2 28l66 5c10 1 22 9 26 18l33 67c1 2 1 5 0 7z m-48-67c-2-3-8-8-13-8l-74-6c-4 0-8-4-8-9l3-36c0-1-1-1-1-2c-1 0-2 0-2 1l-77 67c0 1 0 2 0 2l68 77c0 0 0 0 0 0c1 0 1 0 1 0c0 0 1 0 1 0c0 0 0 0 0-1c0 0 0 0 1 0l2-35c0-2 1-5 3-6c1-2 4-2 6-2l115 10z m-39 63c-15 31-40 85-44 96c-5 15 0 35 15 42c4 2 9 3 14 3c11 0 22-5 28-16l55-119z m-216-9c-13 3-74 6-101 7l11 24l24-12c0 0 1 0 1 0c7-3 14-1 20 5c5 5 7 12 4 19l-35 96c-4 10-14 15-24 11l-96-35c-7-3-12-9-12-17c0-7 4-14 11-18l25-11l-27-60c-4-10-3-24 3-33l43-60c2-2 4-4 7-4l141-9c26 0 48 21 49 47c1 26-22 47-44 50z m-149-60l-33 46c-2 4-3 12-1 16l30 67c2 5 0 10-4 12l-33 15c-1 0-1 1-1 1c0 2 1 2 1 2l96 35c0 0 0 0 0 0c1 0 2 0 2-1l35-96c0-1 0-1 0-1c0 0-1 0-1-1c0 0 0 0 0 0c-1 0-1 0-1 0c0 0 0 0 0 0l-32 15c-2 1-4 1-7 0c-2-1-4-2-4-4z m145-20l-131 9l27 61c34-1 93-4 105-6c15-3 31-17 30-34c-1-16-15-30-31-30z"/>
<glyph unicode="&#57360;" d="M426 340c4 8 6 17 6 26c0 22-11 42-30 53c-3 25-22 47-48 52c-13 15-32 24-53 22c-11 12-27 19-44 19c-17 0-33-7-45-20c-22 4-42-5-55-21c-28-4-49-27-51-55c-16-11-26-30-26-50c0-9 2-18 6-26c-6-10-10-21-10-33c0-31 24-57 55-60c5-29 30-51 60-51c7 0 14 2 21 4l0-171c0-29 29-29 42-29c12 0 41 0 41 29l0 58l67 41c2 1 3 3 4 5c0 3-1 5-2 7l-11 12c-2 3-5 4-8 3l-50-12l0 53c3 2 5 4 7 6c7-3 15-4 23-4c29 0 54 21 59 49c30 5 52 30 52 60c0 12-4 23-10 33z m-145-214c2-2 5-2 8-2l55 13l0 0l-62-38c-2-1-4-4-4-7l0-63c0-7-2-12-24-12c-23 0-25 5-25 12l0 160c9-4 18-7 28-7c7 0 14 2 21 4l0-54c0-2 1-5 3-6z m95 138c-4 0-8-4-8-8c-1-23-21-41-43-41c-8 0-15 2-21 5c-4 2-9 1-12-2c-8-12-21-19-35-19c-11 0-22 5-30 12c0 0 0 1-1 1c-1 1-2 3-4 4c-1 2-4 4-6 4c-2 0-3-1-4-2c-7-3-14-5-21-5c-24 0-43 19-44 42c0 3-1 5-2 6c-2 2-4 3-7 3c0 0-1 0-1 0c-24 0-44 19-44 43c0 10 4 19 10 27c2 3 2 7 0 10c-4 7-6 14-6 22c0 16 8 30 22 38c2 1 4 4 4 7c0 0 0 1 0 1c0 22 17 41 39 43c2 0 5 1 6 3c8 11 21 18 35 18c3 0 7-1 10-1c4-1 7 0 9 3c9 11 21 17 35 17c13 0 26-6 34-17c2-2 5-4 8-3c3 1 6 1 8 1c14 0 27-7 35-18c2-2 4-3 6-4c21-2 37-20 37-41c1-3 2-6 5-8c15-7 25-22 25-39c0-8-2-15-6-22c-2-3-2-7 0-10c6-8 10-17 10-27c0-24-19-43-43-43z"/>
<glyph unicode="&#57361;" d="M371 212l-96 0c-4 5-20 31-20 68c0 22 15 48 30 72c15 24 29 47 29 67c0 40-37 88-39 90c-2 3-8 4-11 1c-4-3-5-8-2-12c0 0 35-45 35-79c0-15-13-36-26-58c-16-27-33-54-33-81c0-31 10-55 17-68l-74 0c-2 0-5-1-6-3c-2-2-2-5-2-7l5-29c1-3 4-6 8-6l25-160c1-4 5-7 9-7l117 0c4 0 8 3 8 7l26 161c2 1 3 3 3 5l6 29c0 2 0 5-2 7c-2 2-4 3-7 3z m-41-195l-103 0l-25 160c-1 4-4 6-8 7l-2 11l169 0l-2-12c-2-2-4-4-4-6z m60 349c-1 3-3 5-5 6c-8 4-14 9-19 14c-8 6-15 13-28 14c-15 1-29-8-33-23c-1-1-1-1-1-2c0-1 0-1 0-2c-1-1-1-2-1-4c0-8 3-17 8-23c6-7 14-11 23-11c1 0 2 0 3 0c26 0 49 23 50 24c2 1 3 4 3 7z m-55-14c-4 0-8 2-11 5c-3 3-4 7-4 11c0 1 0 1 0 2c0 0 1 0 1 0c0 1 0 1 0 1c0 1 0 1 0 1c2 7 9 11 16 11c6-1 10-4 17-10c4-3 8-6 12-10c-7-5-19-12-31-11z m-27 113c0-1 0-3 1-4c2-7 7-13 14-17c4-2 9-3 14-3c2 0 5 0 8 1c24 8 36 35 37 36c1 3 1 6-1 8c-1 2-4 4-6 4c-8 1-14 3-20 5c-8 3-16 6-27 3c-13-4-21-16-21-30c1 0 1-1 1-2c0 0 0-1 0-1z m25 17c5 1 9 0 16-3c4-1 7-2 11-4c-4-6-11-14-20-16c-3-1-6-1-9 0c-3 2-5 4-6 7c0 1 0 1 0 1c0 0 0 1 0 1c0 0 0 1 0 1c0 0 0 0 0 0c-1 6 3 11 8 13z m-71-213c0-1 0-2 1-3c-1 0-1-1 0-2c3-17 18-30 36-30c1 0 2 0 3 0c32 3 56 35 57 37c2 2 2 5 1 8c0 2-2 4-5 5c-11 3-18 8-25 13c-10 6-20 12-34 11c-20-2-35-19-34-39z m17 1c-1 11 7 20 18 21c9 1 15-3 24-9c4-3 10-6 17-10c-9-8-23-19-37-21c-10 0-20 6-22 16c0 1 0 1 0 2c0 0 0 0 0 1z m-61 76c4-2 9-3 14-3c3 0 7 0 11 1c8 3 14 9 18 17c1 1 1 2 2 3l-1 1c0 0 0 0 0 0c1 1 1 2 2 4c3 14-5 29-18 36c-12 5-22 3-31 1c-7-2-14-3-24-3c-3 1-5-1-7-3c-2-2-2-5-1-7c0-2 9-35 35-47z m0 43c10 2 14 3 21 0c6-3 9-10 8-17c0-1 0-2 0-2l-1 0c0-1 0-1 0-2c-2-3-5-6-9-7c-4-2-8-2-12 0c-11 5-18 17-22 26c6 0 11 1 15 2z m5 58c5-3 10-5 15-5c2 0 3 0 5 1c6 1 12 5 16 10c1 1 1 2 1 2l0 1c0 0 0 0 0 0l1 0c0 0 0 1 0 1c0 1 1 1 1 2c4 10 0 23-9 30c-8 5-16 5-23 5c-5-1-10-1-16 1c-3 0-6 0-8-2c-2-2-3-5-3-8c1-1 3-26 20-38z m7 30c7 0 10 0 13-2c3-3 4-7 3-10c0 0 0 0 0-1c0 0 0 0 0 0c0 0-1-1-1-1c-1-2-3-3-5-4c-3 0-5 1-7 2c-5 3-8 10-10 15c3 0 5 1 7 1z m-38-245c16 0 32 10 38 26c1 1 1 2 1 2c0 1 1 2 1 3c6 22-7 45-29 51c-16 4-28-1-41-6c-9-4-19-8-32-9c-3-1-5-2-7-5c-1-2-1-5 0-7c1-2 21-44 57-54c4-1 8-1 12-1z m-48 52c10 2 18 6 24 8c12 5 20 8 30 5c13-3 21-17 17-30c0 0 0-1 0-1c0-1 0-1-1-2c-4-12-17-18-29-14c-19 5-33 23-41 34z"/>
<glyph unicode="&#57362;" d="M439 239c1 2 2 4 2 7c0 2-1 4-2 6l-5 4c-3 3-7 3-10 2l-105-56l-7 106c0 3 0 5-1 8l30 77c1 4 0 7-3 10l-3 2c-3 3-8 3-11 0l-39-38l-57 88c-1 2-3 4-6 4c-2 1-5 0-6-2l-5-3c-2-2-3-5-2-8l25-121c-1-5-2-11-2-16l-5-79l-105 135c-3 4-8 5-11 2l-5-3c-3-3-4-7-2-11l116-226l-6-88c0-39 39-39 58-39c19 0 57 0 57 40l-5 84z m-127-200c0-17-9-22-40-22c-31 0-41 5-41 21l6 90c0 2 0 3-1 5l-88 171l79-102c2-3 6-4 9-3c4 1 6 4 6 8l7 101c0 5 1 10 2 15c0 1 0 2 0 4l-19 91l44-69c1-1 2-2 3-3c4-2 8-1 11 2l24 24l-19-52c-1-1-1-3-1-4c1-3 1-5 1-8l8-121c0-2 1-5 4-6c3-2 6-2 8-1l87 46l-93-92c-2-2-3-5-2-7z m-259 362c0-7 0-14 6-22c4-6 12-9 19-9c6 0 11 1 15 5c11 8 13 24 5 34c-13 16-37 18-38 18c-3 0-6-1-7-4c-2-2-3-5-2-7c2-6 2-11 2-15z m31-2c3-3 2-8-1-11c-2-1-4-1-5-1c-2 0-4 1-6 2c-2 3-2 6-2 12c0 2 0 4 0 6c5-1 11-4 14-8z m-4-60c-3 0-6-1-9-2c-8-4-11-10-14-15c-2-3-4-7-7-10c-2-2-3-5-2-8c0-3 2-5 4-6c2-1 11-5 23-5c5 0 10 1 14 3c12 5 17 18 12 30c-4 8-12 13-21 13z m2-28c-2-1-4-1-7-1c-2 0-3 0-5 0c1 2 1 3 2 4c3 5 4 6 6 7c3 2 6 0 7-2c1-3 0-6-3-8z m75 25c2-1 5-2 8-2c9 0 16 6 20 14c6 15-2 32-3 34c-1 3-4 4-6 5c-3 0-6-1-8-3c-3-3-6-4-9-6c-5-3-11-6-14-14c-4-11 1-23 12-28z m4 21c1 3 2 4 6 6c1 0 2 1 3 1c0-3 0-7-1-10c-1-2-4-3-6-2c-2 1-3 3-2 5z m299-107c5 0 10 2 14 5c16 12 18 36 19 37c0 3-1 6-3 7c-3 2-5 3-8 2c-5-1-8-1-12-1l-6 0c-6 0-13-1-19-5c-11-9-13-24-5-35c5-6 12-10 20-10z m-5 31c2 1 4 2 9 2l7 0c0 0 1 0 2 0c-2-5-4-11-9-14c-3-3-8-2-10 1c-3 4-2 8 1 11z m21-64c-3 5-6 11-13 15c-11 4-24-1-28-11c-3-6-3-12-1-17c2-5 6-9 11-12c4-1 9-2 14-2c11 0 20 4 21 4c3 2 4 4 5 7c0 2-1 5-2 7c-4 3-5 6-7 9z m-24-9c-1 1-2 2-2 2c0 1-1 2 0 4c1 1 2 2 4 2c1 0 1 0 2 0c2-1 3-3 5-7c0 0 1-1 1-2c-3 0-7 0-10 1z m-58 113c-3 1-6 0-8-2c0-1-19-21-17-44c1-14 13-24 27-24c1 0 2 0 3 0c14 1 25 15 24 29c-1 11-7 17-12 23c-4 4-8 8-11 14c-1 2-4 4-6 4z m12-42c0-6-4-10-9-11c-5-1-10 4-11 9c-1 7 3 15 6 21c2-3 4-5 6-7c5-5 7-8 8-12z m-11 72c0 3-2 5-4 7c-6 2-9 6-12 9c-5 4-11 9-21 10c-13 1-25-9-26-22c-1-7 1-13 5-18c5-5 11-8 17-9c1 0 2 0 3 0c18 0 34 14 36 16c2 2 2 5 2 7z m-39-6c-2 0-4 1-6 3c-1 1-1 3-1 5c0 4 3 7 8 7c0 0 0 0 0 0c4 0 5-2 10-6c1-1 3-3 5-4c-5-3-11-5-16-5z m14 44c6 0 12 3 17 7c14 15 13 39 12 40c0 3-1 5-4 7c-2 1-5 1-7 0c-6-2-10-3-15-3c-7-1-14-2-21-9c-9-10-9-26 0-35c5-5 11-7 18-7z m-6 30c3 2 5 3 11 4c2 0 4 0 7 1c-1-6-3-12-7-16c-1-1-3-2-5-2c-2 0-4 1-6 2c-3 3-3 8 0 11z m-89 6c7 0 13 3 18 8c7 7 8 14 8 21c1 5 2 10 4 15c1 3 1 6-1 8c-1 3-4 4-6 4c0 0-1 0-3 0c-8 0-26-1-38-13c-10-10-10-26 0-36c5-4 11-7 18-7z m-6 31c4 4 11 6 17 7c-1-2-1-4-2-7c0-6-1-9-3-11c-2-2-4-3-6-3c-2 0-4 1-6 3c-3 3-3 8 0 11z m-83-58c5 0 11 2 15 7c8 8 8 22-1 30c-6 6-12 7-18 7c-3 1-7 1-11 3c-3 1-6 0-8-1c-2-2-4-4-4-7c0-2 0-21 12-33c4-4 9-6 15-6z m-5 27c4 0 6-1 8-2c1-2 1-5 0-6c-1-2-3-2-3-2c-2 0-3 1-4 1c-2 3-3 6-4 10c1-1 2-1 3-1z m8 28c1 0 1 0 2 0c12 0 22 10 22 22c1 9-3 15-7 20c-2 3-4 6-6 11c-1 3-3 5-6 6c-2 0-5 0-7-2c-2-1-18-15-19-33c-1-12 9-23 21-24z m1 36c1-2 2-3 2-4c4-5 5-6 4-9c0-3-2-6-5-6l0-8l-1 8c-3 0-5 3-5 6c0 5 2 9 5 13z"/>
<glyph unicode="&#57363;" d="M507 223l-43 22l0 96c0 22-20 22-32 22c-12 0-33 0-33-22l0-62l-57 29c-3 1-6 1-8 0c-3-2-4-5-4-8l0-70l-37 18l0 84c0 22-20 22-32 22c-12 0-32 0-32-22l0-50l-52 26c-3 1-6 1-8 0c-3-2-4-5-4-8l0-70l-153 78c-2 1-5 1-8 0c-2-2-4-5-4-8l0-267c0-14 11-25 24-25l464 0c13 0 24 11 24 25l0 183c0 3-2 6-5 7z m-91 118c0 3 0 5 16 5c15 0 15-2 15-5l0-87l-31 16z m-170-9c0 4 0 5 15 5c15 0 15-1 15-5l0-74l-30 16z m249-299c0-4-3-8-7-8l-464 0c-4 0-7 4-7 8l0 253l152-78c3-1 6-1 9 1c2 1 4 4 4 7l0 70l152-78c3-1 6-1 9 1c2 1 4 4 4 7l0 70l148-76z m-376 113l-53 0c-8 0-14-7-14-15l0-58c0-8 6-15 14-15l53 0c8 0 14 7 14 15l0 58c0 8-6 15-14 15z m-3-71l-47 0l0 54l47 0z m171 71l-52 0c-8 0-15-7-15-15l0-58c0-8 7-15 15-15l52 0c8 0 15 7 15 15l0 58c0 8-7 15-15 15z m-2-71l-47 0l0 54l47 0z m111-17l53 0c8 0 14 7 14 15l0 58c0 8-6 15-14 15l-53 0c-7 0-14-7-14-15l0-58c0-8 7-15 14-15z m3 71l47 0l0-54l-47 0z m2 291c-2-3-3-7-3-11c0-6 3-12 8-17c2-11 12-20 24-20c13 0 24 10 24 23c0 2 0 4-1 6c2 3 4 6 5 10c4 4 6 9 6 14c0 3-1 5-2 7c1 3 2 5 2 8c0 11-10 21-21 22c-5 5-11 7-18 7c-13 0-24-10-24-22c0-2 0-3 1-4c-3-3-4-8-4-12c0-4 1-8 3-11z m18-16c-2 1-4 3-4 5c0 3 2 4 2 5c2 1 3 4 3 6c0 3-1 5-3 7c-1 0-2 2-2 4c0 2 1 3 2 4c3 2 3 6 2 10c0 0-1 1-1 2c0 3 4 5 7 5c3 0 5-1 6-3c2-3 6-4 9-4c3 0 7-2 7-5c0-1-1-2-1-3c-2-3-2-6 0-9c0-1 1-2 1-3c0-2-2-3-2-4c-2-1-3-3-3-5c0-2-2-4-4-5c-2-1-4-3-4-6c-1-2 0-5 2-7c0-1 1-2 1-3c0-3-3-6-7-6c-4 0-7 3-7 6l-8 0l8 1c1 3-1 7-4 8z m-197 29c-4-4-5-10-5-16c0-9 4-18 12-24c1-16 15-28 32-28c18 0 32 13 32 30c0 4-1 7-2 11c4 4 7 9 9 15c5 6 8 13 8 20c0 4-1 8-3 11c2 4 3 7 3 11c0 16-14 29-30 30c-6 7-15 11-24 11c-18 0-32-13-32-30c0-2 0-4 0-6c-4-5-6-12-6-18c0-6 2-12 6-17z m16 26c2 3 3 7 2 10c-1 2-1 3-1 5c0 7 6 13 15 13c5 0 10-2 13-7c1-2 4-4 7-4c0 0 1 0 2 0c8 0 14-6 14-13c0-2 0-4-1-6c-2-3-2-7 0-9c1-2 1-5 1-7c0-3-1-7-4-9c-2-2-3-4-3-6c0-4-3-8-7-10c-3-1-5-3-5-6c-1-2 0-5 2-7c1-2 3-5 3-8c0-7-7-13-15-13c-8 0-15 6-15 13c0 0 0 1 0 2c1 3-1 7-4 9c-5 2-8 6-8 11c0 4 1 7 5 10c1 2 3 4 3 7c0 2-2 5-4 6c-3 3-5 6-5 10c0 3 2 7 5 9z"/>
<glyph unicode="&#57364;" d="M326 458l-187 0c-12 0-22-10-22-22l0-109c0-12 10-22 22-22l187 0c13 0 23 10 23 22l0 109c0 12-10 22-23 22z m5-131c0-2-2-5-5-5l-187 0c-2 0-5 3-5 5l0 109c0 3 3 5 5 5l187 0c3 0 5-2 5-5z m-90-65c-2 2-4 2-7 2c-3-1-5-3-6-5c-10-23-22-39-32-53c-15-19-28-36-28-64c0-35 26-64 60-67c0-1 1-1 1-1c0 0 0 0 0 0l14 1c0 0 1 0 1 0c34 4 60 33 60 67c0 64-60 117-63 120z m2-170l5 87c1 5-3 9-8 9c-4 0-8-3-9-8l-5-88c-24 5-41 26-41 50c0 22 10 35 24 54c10 12 20 26 30 45c15-17 48-56 48-99c0-25-19-47-44-50z m221 360l-58 57c-3 4-8 4-12 1c-3-4-3-9 0-13l33-33c-3 3-8 3-11 0l-6-6c-4-4-6-9-6-14c0-5 2-10 6-14l25-24c1-2 4-3 6-3c2 0 4 1 6 3c3 3 3 9 0 12l-25 25c0 0-1 1-1 1c0 1 1 1 1 2l6 6c3 3 3 8 1 11l23-23l0-339l-30 0l0 204c0 5-4 9-8 9l-23 0l0 154c0 16-13 28-28 28l-260 0c-15 0-28-12-28-28l0-413l-4 0c-16 0-28-12-28-28c0-15 12-27 28-27l325 0c15 0 27 12 27 27c0 16-12 28-27 28l-5 0l0 242l14 0l0-196c0-9 8-17 17-17l30 0c9 0 17 8 17 17l0 339c0 4-2 9-5 12z m-68-414c6 0 10-5 10-11c0-5-4-10-10-10l-325 0c-6 0-11 5-11 10c0 6 5 11 11 11l13 0c5 0 8 4 8 8l0 422c0 6 5 11 11 11l260 0c6 0 10-5 10-11l0-422c0-4 4-8 9-8z"/>
<glyph unicode="&#57365;" d="M256 512c-101 0-184-82-184-184c0-69 36-106 68-137c24-25 45-45 45-77c0-2 1-4 2-6c2-1 4-2 6-2l1 0c0-3 0-5 0-5l0-7c0-3 0-6 1-8l0-2c-1-1-1-2-1-3c0-3 0-5 1-7l-1-5c0-1 0-1 0-2c0-4 1-7 2-10l0-2c0-1 0-1 0-2c0-5 2-10 5-14c0 0 0 0 0 0c0-10 5-16 15-19c3-20 31-20 43-20c11 0 42 0 44 20c10 3 15 9 15 19c0 0 0 0 0 0c4 4 6 9 6 14c0 1 0 1 0 2l-1 2c2 3 3 6 3 10c0 1 0 1 0 2l-1 5c0 2 1 4 1 7c0 1 0 2-1 4l-1 1c1 2 2 5 2 8l0 7c0 2 0 4-1 6c3 2 5 4 5 7c0 30 19 50 42 74c30 30 68 68 68 140c0 102-83 184-184 184z m53-418c0-1-1-2-1-2c-2-3-3-6-1-10l2-3c-1 0-1 0-1 0c0-2-1-4 0-6l1-6c0-2-1-2-1-2c-2-2-2-5-2-8l1-4c0-1-1-2-2-2c-3-2-5-6-4-9l0-4c0 0 0 0 0 0c0 0-1-2-8-2c-4-1-8-5-7-10l0-3c0-2-6-6-27-6c-16 0-25 2-26 6l1 3c0 2-1 4-2 6c-2 2-4 3-6 3c-6 1-8 2-8 2c0 0 0 1 0 1l1 3c0 4-1 8-5 9c-1 1-1 1-1 3l1 5c0 2-1 5-2 7c-1 0-1 1-1 2l1 6c0 2 0 4-1 5c0 1 0 1 0 1l2 3c1 4 1 7-2 10c0 0 0 1 0 2l0 7c0 1 0 3 0 5l97 0c1-2 1-4 1-5z m51 106c-22-23-44-45-47-77l-112 0c-3 33-25 56-49 80c-31 31-62 63-62 125c0 92 74 167 166 167c92 0 166-75 166-167c0-65-31-97-62-128z"/>
</font>
</defs>
</svg>
